<?xml version="1.0" encoding="UTF-8" standalone="no"?>
<!DOCTYPE svg  PUBLIC '-//W3C//DTD SVG 1.1//EN'  'http://www.w3.org/Graphics/SVG/1.1/DTD/svg11.dtd'>
<svg xmlns="http://www.w3.org/2000/svg">
<defs>
<font id="AmaticSC-Regular" horiz-adv-x="696">
<font-face underline-position="-102" font-weight="400" descent="-410" panose-1="0 0 0 0 0 0 0 0 0 0" units-per-em="2048" unicode-range="U+0020-2212" font-stretch="condensed" bbox="-103 -488 1638 2058" x-height="1356" underline-thickness="102" font-family="AmaticSC" ascent="1638" cap-height="1552"/>
<missing-glyph horiz-adv-x="2048"/>
<glyph glyph-name=".notdef" horiz-adv-x="2048"/>
<glyph glyph-name=".null" horiz-adv-x="0"/>
<glyph glyph-name="glyph2" horiz-adv-x="2048"/>
<glyph glyph-name="space" horiz-adv-x="290" unicode=" "/>
<glyph glyph-name="exclam" horiz-adv-x="329" unicode="!" d="M147 322l-2 8v491l5 350l-15 322q-1 21 21 38t46 17t23 -26q1 -164 -21 -490t-22 -489l2 -90q0 -82 -16 -121l6 -10h-27zM88 39q0 19 21 41t46 22t41 -22t15 -53q0 -51 -51 -54q-3 9 -13 11q-34 5 -59 55z"/>
<glyph glyph-name="quotedbl" horiz-adv-x="636" unicode='&quot;' d="M418 1455q0 120 41 120q11 1 19 -23t7 -66q0 -42 -12 -136q-11 -95 -19 -95t-10 2q-26 40 -26 152v46zM207 1262q4 29 4 122v17q-1 174 21 174q22 1 36 -23t13 -67q1 -43 -23 -135t-43 -93q-3 0 -8 5z"/>
<glyph glyph-name="numbersign" horiz-adv-x="790" unicode="#" d="M281 674l2 -8q24 -4 93 -4t130 8q37 197 37 293q0 20 -158 20q-46 0 -68 -12q-11 -25 -23 -139t-13 -158zM578 674l38 2q58 0 58 -39q0 -14 -33 -27h-80q-5 -56 -31 -286t-26 -355l-23 -26q-37 0 -37 20q0 43 14 128t13 139t19 180t20 192q-55 6 -135 6t-103 -8 q-10 -71 -26 -252q-36 -405 -62 -405q-10 -1 -22 5t-12 15q0 79 25 300t50 337l-88 -8q-61 0 -61 43q0 20 69 20h43q31 0 41 2q5 13 21 149t16 165l-69 -4q-78 0 -80 37l16 18q118 0 137 6q5 45 18 134q29 186 29 294l-2 41q0 45 31 45l14 -29q0 -79 -18 -237t-18 -238 q29 -8 107 -8t116 14q63 305 76 482q13 16 30 16t25 -20q-2 -78 -38 -232t-36 -235l4 -11h76l27 -28q-13 -33 -27 -33l-86 4q-31 -122 -31 -309z"/>
<glyph glyph-name="dollar" horiz-adv-x="538" unicode="$" d="M135 1288q0 -128 78 -299q0 -5 6 -8q-2 89 -18 255t-19 237q-20 -3 -34 -75t-13 -110zM315 240l2 -4q41 19 69 63t28 93q0 48 -47 188t-86 196q0 -90 17 -268t17 -268zM319 184l9 -116q0 -86 -35 -86q-9 0 -14 15t-5 26l9 6v135l-7 6q-69 0 -102 -4q-72 50 -72 102 q0 21 19 21h4q21 -13 27 -35t18 -36t48 -13q36 0 61 8q0 165 -54 668q-1 9 -23 57t-47 102q-67 147 -67 260q0 55 15 112q29 110 83 110l-8 88q0 53 29 53l16 -18q-2 -14 -2 -46q0 -75 33 -75q39 0 78 -45q51 -51 51 -63q-1 -12 -9 -22q-8 -11 -18 -1t-27 37t-36 40t-55 17 l-7 -17l7 -161q0 -61 16 -234t28 -201t58 -121q109 -221 119 -350q1 -85 -29 -121t-50 -53q-20 -16 -61 -45z"/>
<glyph glyph-name="percent" horiz-adv-x="1120" unicode="%" d="M735 1532q31 0 31 -27q0 -17 -20 -99t-33 -142t-219 -965l-41 -178q-2 -7 -6 -29q-3 -22 -7 -34q-4 -13 -10 -30q-12 -32 -37 -34q-20 13 -20 47t10 89q11 56 33 144t93 402t131 544t64 241q2 11 6 22t7 23q9 26 18 26zM983 369q2 39 1 63t-1 45q1 21 -1 49t-10 74 t-21 78t-39 56t-60 24t-58 -36t-34 -90q-19 -95 -19 -157l-4 -108l8 -54q1 -4 7 -47q6 -42 14 -76t26 -65t49 -31t58 16t42 44t25 64t12 74t5 77zM1036 479l-4 -94l4 -6q0 -118 -28 -199q-51 -153 -177 -153q-39 -1 -69 41t-46 100q-30 116 -30 182v8q0 457 172 457 q48 0 83 -27q35 -28 53 -64t28 -88q14 -72 14 -157zM141 1178l4 -113q0 -62 15 -138q28 -151 98 -151q44 0 74 34t42 89q19 93 19 172l-16 256l-4 19q1 61 -37 106t-94 45q-43 0 -63 -83q-15 -64 -21 -120t-8 -63zM436 1153l4 -94q0 -236 -95 -309q-35 -27 -83 -27 q-172 0 -172 457v8q0 71 24 171q45 193 122 193q104 0 141 -75q63 -108 63 -318z"/>
<glyph glyph-name="ampersand" horiz-adv-x="942" unicode="&amp;" d="M313 1315q-4 -11 -4 -31t3 -49t3 -45q35 32 78 158t43 182q0 123 -76 123q-14 1 -34 -29t-19 -45l2 -254zM764 629q2 0 2 -2zM174 814q-37 -122 -37 -212t13 -142t39 -100q57 -102 178 -102q41 0 107 24t69 58q-9 15 -41 47q-64 66 -116 202t-66 209q-14 72 -22 134 q-7 62 -17 94q-70 -90 -107 -212zM862 254q0 -33 -86 -33t-192 82q-66 -46 -114 -65t-119 -19t-133 50q-62 49 -94 121t-32 128t2 94q2 36 8 74q8 38 12 62t18 64t18 55t28 61q22 46 27 56t34 66t35 68l-14 287v170q0 61 22 95t44 34q47 0 101 -31t54 -74l-6 -122 q0 -17 2 -25q-15 -42 -35 -100q-45 -133 -74 -173q-46 -64 -46 -94q0 -61 40 -221t100 -314q60 -153 107 -167q78 157 78 397q0 35 -18 32q-20 -3 -31 13l2 4l-4 13l6 10q36 0 118 8t103 17q35 -5 35 -31q0 -15 -34 -24t-68 -9l-49 2h-13q0 -158 -18 -261t-70 -206 q71 -82 158 -82l76 6z"/>
<glyph glyph-name="quotesingle" horiz-adv-x="636" unicode="&apos;" d="M207 1262q4 29 4 122v17q-1 174 21 174q22 1 36 -23t13 -67q1 -43 -23 -135t-43 -93q-3 0 -8 5z"/>
<glyph glyph-name="parenleft" horiz-adv-x="460" unicode="(" d="M94 879q0 68 26 239q26 170 74 338q49 168 99 170l20 -16q-2 -49 -32 -108q-131 -251 -131 -623q0 -649 155 -1018q7 -19 41 -79t43 -97q-15 -25 -29 -25t-22 4t-16 18l-12 18q-17 30 -17 42q-95 210 -147 529t-52 608z"/>
<glyph glyph-name="parenright" horiz-adv-x="477" unicode=")" d="M387 817q0 -233 -63 -498q-138 -598 -222 -598q-10 0 -20 7q-10 6 -10 16t15 40t37 70q88 164 148 462t60 501q0 350 -92 606q-8 22 -28 57q-44 82 -44 130l20 16q42 -1 82 -110t64 -253q53 -314 53 -446z"/>
<glyph glyph-name="asterisk" horiz-adv-x="905" unicode="*" d="M471 1120q-2 0 -2 -2h2v2zM537 1120q-55 0 -64 -6q1 -26 79 -182t79 -172q0 -18 -9 -26t-25 -9t-27 17q-12 18 -18 52t-7 37q-55 131 -111 234q-9 -12 -24 -53l-80 -189q-4 -10 -12 -33q-17 -47 -31 -71l-27 -4l-29 30q0 23 77 175t85 198q-12 4 -22 4h-232l-33 -2 q-22 0 -22 33q0 9 6 17t16 8l277 -2l4 4q-21 40 -85 175t-64 148q0 23 32 23q14 0 44 -72t62 -150q32 -79 52 -92q9 16 38 104q74 228 109 228q11 0 22 -10t11 -22t-26 -54q-24 -48 -56 -144t-49 -136q11 -11 125 -11l176 11q15 0 27 -12t12 -27q0 -29 -47 -29z"/>
<glyph glyph-name="plus" horiz-adv-x="727" unicode="+" d="M401 389q0 -33 -43 -33q-12 0 -28 9t-15 20v64l4 106q0 60 -29 65q-14 3 -40 3l-90 -11q-60 0 -60 43q0 29 23 29l108 -6q84 0 84 16l-10 205q1 25 9 35t32 10q37 0 37 -35l-8 -20l8 -162q-1 -29 13 -39t44 -10l123 6q64 0 64 -35t-35 -35l-125 7q-65 0 -71 -11 q-13 -22 -13 -58t9 -86t9 -77z"/>
<glyph glyph-name="comma" horiz-adv-x="407" unicode="," d="M100 -162l4 19q107 89 107 149q-25 14 -42 39t-17 52t24 45t53 18q46 0 68 -60l-4 -6q4 -8 4 -33t-25 -83t-65 -106t-74 -50z"/>
<glyph glyph-name="hyphen" horiz-adv-x="620" unicode="-" d="M508 739q0 -21 -134 -40t-183 -19q-50 0 -64 10t-14 25q0 21 135 40t182 19q78 0 78 -35z"/>
<glyph glyph-name="period" horiz-adv-x="327" unicode="." d="M126 8q-14 16 -13 34t17 36t35 18t35 -18t15 -35q0 -51 -57 -51q-18 0 -32 16z"/>
<glyph glyph-name="slash" horiz-adv-x="559" unicode="/" d="M479 1505q0 -17 -20 -99t-33 -142t-219 -965l-41 -178q-2 -7 -6 -29t-8 -34q-4 -13 -9 -30q-12 -32 -37 -34q-20 13 -20 47t10 90t34 142q22 86 93 401q71 316 131 546t64 241q2 11 6 22t7 23q9 26 18 26q30 0 30 -27z"/>
<glyph glyph-name="zero" horiz-adv-x="606" unicode="0" d="M156 946l20 -180q0 -733 164 -733q58 0 88 109q28 106 33 192q8 138 8 229t-16 261t-47 247v88q-22 56 -24 116q-2 61 -10 95t-21 59q-31 56 -134 68q-48 -39 -59 -69t-11 -99zM100 1036l2 328q12 20 22 68t22 69q23 41 102 41q20 0 56 -20t56 -40q20 -18 32 -44 q14 -26 23 -43q9 -19 15 -53t10 -49q6 -47 10 -81t12 -95q8 -60 10 -72q2 -13 8 -67q8 -54 10 -72t6 -66q6 -48 8 -72t6 -66t4 -72q4 -69 4 -125q0 -57 -2 -97t-8 -104t-18 -114q-14 -52 -34 -100q-44 -104 -134 -104q-19 0 -66 26q-97 60 -150 762l9 8l-2 146 q-13 17 -13 108z"/>
<glyph glyph-name="one" horiz-adv-x="606" unicode="1" d="M481 14l-252 -8q-14 0 -23 9t-9 22l10 20l55 -2q29 0 40 13t11 43q0 258 -13 470q-15 240 -46 703l2 70q0 60 -19 94t-75 35l-47 -4q-35 0 -35 22q0 29 180 29q14 0 24 -10t9 -23h4q-6 -31 -6 -79q-1 -48 15 -177t16 -219t17 -318t17 -292q0 -62 -4 -78q13 -52 13 -232 l-3 -30l9 -6l92 6q63 0 63 -29t-45 -29z"/>
<glyph glyph-name="two" horiz-adv-x="571" unicode="2" d="M428 2l-299 -18q-19 0 -35 11t-16 30q35 43 69 139t41 110q118 256 176 488t58 487q0 295 -127 295q-29 -12 -45 -42t-20 -60q-8 -76 -35 -76t-27 37t11 77t37 72q26 33 60 33q86 0 139 -65t56 -154l-4 -4l6 -150q0 -167 -46 -408t-110 -384q-5 -12 -52 -109 q-109 -225 -111 -270l16 -2q71 13 246 22l30 -32z"/>
<glyph glyph-name="three" horiz-adv-x="589" unicode="3" d="M315 844l-20 -2q-23 0 -39 8v8l-10 10q2 7 22 31q20 23 44 53t45 79q20 49 20 91t-2 78q-1 36 -9 92t-21 97t-39 71t-60 31q-34 -1 -56 -19t-31 -40q-22 -58 -48 -58q-12 0 -23 8t-12 21q32 65 72 101t85 36q74 0 111 -49l6 -2q82 -119 82 -387q0 -50 -37 -115 q-9 -6 -33 -47t-34 -51q80 -32 112 -124q22 -65 35 -148t22 -123q13 -57 13 -110q0 -54 -1 -80t-5 -67t-11 -71t-21 -64t-33 -54q-44 -50 -101 -50t-100 20t-43 56l16 10q25 -2 52 -22t36 -25q156 0 156 260q0 233 -32 347q-34 121 -108 200z"/>
<glyph glyph-name="four" horiz-adv-x="526" unicode="4" d="M455 567q0 -26 -42 -26q-7 0 -15 1q-22 2 -40 -8t-18 -51t6 -178t12 -153q-2 -8 -2 -38t9 -46l-7 -25l7 -14v-29l-33 -25l-31 13v73l-2 5q8 33 8 73l-14 209l4 92q0 80 -21 90l-120 -12q-27 0 -39 10t-17 13v6q0 10 11 65l-19 41l19 101l20 401v326l-8 51q1 27 31 27 t30 -29l-8 -164q0 -36 6 -70l-4 -6q4 -36 4 -57l-24 -516l14 -60l-14 -55q0 -39 20 -39t54 6q36 6 49 13q0 74 -8 270q-7 196 -15 252q-8 55 -8 76q0 32 39 32l18 -22l12 -289q0 -60 6 -185t15 -134l76 8q39 0 39 -23z"/>
<glyph glyph-name="five" horiz-adv-x="569" unicode="5" d="M152 1337q-2 0 -2 -2zM152 1544q0 -57 41 -538l-3 -2q0 -1 36 -5q115 -13 148 -37t62 -138q49 -190 49 -386q0 -150 -9 -200q-8 -50 -20 -90t-28 -69q-39 -67 -98 -99h-11q-106 0 -106 32q0 23 39 23l53 -17q31 0 57 38t42 92q30 114 30 178t-4 147q-4 81 -18 201 t-46 199t-81 79h-47l-9 -6l-6 2l-45 -18q-38 0 -46 32q-2 12 -3 34t-2 30q10 58 10 119q1 61 -23 206t-26 214l21 20l157 2q62 0 62 -28l-23 -19h-43l-6 -4l-82 10l-14 -4z"/>
<glyph glyph-name="six" horiz-adv-x="516" unicode="6" d="M154 758v-30q0 -274 51 -562q1 -8 3 -28t5 -32q2 -11 6 -28q5 -16 11 -26t16 -20q19 -20 61 -20q76 0 76 162q0 234 -18 350t-35 188t-47 114t-68 42q-61 -40 -61 -110zM354 -18q-26 -12 -65 -11q-38 1 -67 23q-30 22 -44 55t-24 80t-12 87q-8 131 -11 153 q-31 225 -31 438q0 195 8 275t16 156t23 128t35 102q41 101 115 101q7 0 16 -6t9 -16q0 -9 -13 -19t-32 -18t-25 -13q-33 -27 -57 -161q-35 -197 -41 -439q24 16 52 16t56 -16q29 -17 50 -47t39 -66t30 -86t21 -94q8 -44 14 -102q6 -56 10 -98t4 -94q2 -52 2 -79v-61t-2 -60 t-12 -52q-8 -28 -23 -46t-41 -30z"/>
<glyph glyph-name="seven" horiz-adv-x="450" unicode="7" d="M102 1561l217 6q13 1 27 -11t19 -26q-13 -34 -13 -78t-8 -122q-6 -78 -86 -646t-100 -598q2 -6 2 -26t-13 -52q-13 -34 -36 -35l-25 23q0 34 16 82t38 135q20 87 44 257t51 411q25 241 33 302t18 124q21 132 21 209q0 12 -71 12l-121 -6l-31 20z"/>
<glyph glyph-name="eight" horiz-adv-x="524" unicode="8" d="M233 1565l-22 -2q-16 0 -25 6q-47 -39 -47 -117t39 -272t68 -211q61 196 61 366q0 104 -22 167t-52 63zM205 53q2 -32 20 -62t47 -30q65 0 94 45t29 113q0 194 -78 479q-6 21 -15 64q-22 94 -40 126q-42 -58 -62 -266t-20 -354q0 -42 27 -109zM444 104l-6 -49q0 -6 2 -10 q-32 -63 -68 -93t-87 -30t-80 29t-43 73q-29 86 -29 162q0 312 66 570q3 12 11 34q19 48 19 68q1 20 -9 53t-24 73q-108 326 -108 458q0 114 62 153q24 15 57 15h37q6 -3 20 -9t21 -10q21 -12 30 -32q39 -88 39 -211t-41 -340q-30 -135 -30 -141t5 -20t12 -30t9 -22 q135 -407 135 -691z"/>
<glyph glyph-name="nine" horiz-adv-x="509" unicode="9" d="M154 1171q6 -73 30 -95t38 -30t44 -23q30 -14 51 -26l29 4q10 181 10 439q0 58 -21 90t-67 33q-46 0 -72 -35t-38 -89q-21 -101 -21 -176t17 -92zM369 57l2 -47q0 -57 -35 -57l-17 20q19 54 19 183l10 571q0 37 -2 111t-2 110l-14 -4q-110 25 -178 107t-68 192 q0 157 49 265q19 38 51 66t69 28t81 -16t58 -38q14 -23 14 -325l-3 -242l-14 -82l-6 -690z"/>
<glyph glyph-name="colon" horiz-adv-x="344" unicode=":" d="M146 990q-14 16 -13 35t17 37t35 17q19 1 35 -17t16 -36q0 -51 -58 -51q-18 -1 -32 15zM126 216q-14 16 -13 35t17 37t35 17q19 1 35 -17t15 -36q0 -51 -57 -51q-18 -1 -32 15z"/>
<glyph glyph-name="semicolon" horiz-adv-x="391" unicode=";" d="M205 182q-60 36 -60 90q1 28 25 46t54 18t48 -24q19 -24 19 -58t-23 -94t-63 -110t-78 -52l-33 16l4 19q107 89 107 149zM194 990q-14 16 -14 35t16 37t36 17q19 1 35 -17t16 -36q0 -51 -58 -51q-17 -1 -31 15z"/>
<glyph glyph-name="less" horiz-adv-x="569" unicode="&lt;" d="M461 0l-27 4h-4q-32 47 -69 131t-48 107l-102 213q-5 11 -21 43t-24 51q-6 19 -44 69t-38 78t48 141t106 243t64 152t16 55q10 34 18 59q23 71 49 75l27 -20q-18 -119 -140 -362q-116 -233 -116 -339q0 -16 141 -304t174 -343l18 -14q-3 -11 -11 -25t-17 -14z"/>
<glyph glyph-name="equal" horiz-adv-x="620" unicode="=" d="M141 647l404 -2q7 0 13 -10q6 -11 7 -21q0 -10 -12 -10q0 4 -395 4q-9 0 -17 11t-8 19t8 9zM569 727q0 -6 -215 -6h-198q-17 -1 -30 9t-13 26q0 6 180 6h231q15 0 30 -10t15 -25z"/>
<glyph glyph-name="greater" horiz-adv-x="569" unicode="&gt;" d="M139 4l-30 -4q-9 0 -18 14t-11 25l18 14q36 65 176 347t140 300q0 106 -116 339q-122 243 -140 362l26 20q28 -6 50 -75q6 -24 16 -58t17 -56t65 -151q153 -344 153 -378q1 -34 -37 -85q-38 -52 -45 -70t-24 -50t-21 -43l-176 -365q-37 -77 -43 -86z"/>
<glyph glyph-name="question" horiz-adv-x="464" unicode="?" d="M181.5 7.5q-13.5 15.5 -13.5 34.5t16.5 36.5t35.5 17.5t34.5 -17.5t15.5 -35.5q0 -51 -57 -51q-18 0 -31.5 15.5zM109 1283q-15 77 -15 117.5t6 68.5t19 53q28 56 104.5 56t98.5 -44q45 -90 45 -206.5t-15.5 -207t-36.5 -171t-41 -173.5q-38 -180 -38 -419q0 -56 2 -115 q-1 2 -4 0q-10 -6 -21 -6q-18 0 -23 24q0 307 39 559q9 51 33 149q51 216 51 335q0 107 -21.5 168.5t-51.5 61.5h-23q-72 0 -72 -127q0 -28 15 -123l-25 -8q-23 -2 -26 8z"/>
<glyph glyph-name="at" horiz-adv-x="1036" unicode="@" d="M526 1404q-16 4 -37 5q-22 0 -42 -12t-33 -30t-22 -46q-9 -27 -14 -53t-8 -60q-4 -46 -4 -114v-263q0 -141 14 -185t30 -69q29 -51 92 -51q35 0 70 40q36 40 56 92q20 51 20 87v154q0 33 -3 65t-4 47t-5 39l-6 36t-6 38q-5 27 -7 35q-9 35 -17 85t-10 62t-8 32 q-5 20 -12 30q-8 10 -18 21t-26 15zM487 467q-203 0 -203 487v25q0 199 12 253t26 100q15 46 36 70q52 62 133 62t134 -59q32 -38 93 -612q10 -94 11 -107l23 -10q26 -51 43 -51q79 -1 79 311t-114 614q-30 80 -66 128q-75 96 -224 96q-147 0 -209 -91q-52 -77 -65 -216 q-4 -41 -7 -93t-4 -60t-3 -32t-6 -35q-9 -44 -16 -61q4 -54 4 -90t-8 -56q4 -8 4 -38t3 -80t5 -76t10 -96q8 -68 11 -95t7 -79t5 -84q3 -33 9 -76t16 -77q26 -81 86 -167t127 -86q112 0 197 38t167 124l19 19q18 18 26 20l18 -19q-14 -51 -65 -96t-115 -73 q-137 -60 -240 -60q-149 0 -259 240q-2 25 -13 48t-14 33q-22 62 -45 310t-23 354q0 411 82 626q43 114 136 154q68 29 146 29q78 1 125 -13t83 -34t66 -56q31 -36 52 -67q20 -31 40 -83t31 -88t23 -96q32 -162 36 -196t10 -78q7 -44 9 -59t7 -49q6 -49 6 -111 q0 -338 -152 -338q-28 -1 -58 23t-45 28q-36 -88 -119 -129q-41 -20 -83 -20z"/>
<glyph glyph-name="A" d="M231 426q86 -29 207 -29q25 0 37 4l10 -4q19 0 19 19q0 428 -80 923q-1 6 -4.5 22t-3.5 25q-25 -71 -27 -90l6 -12q-7 -7 -23 -70.5t-44.5 -262t-41 -255t-26.5 -102.5q-29 -102 -29 -156v-12zM567 600l23 -534v-22q0 -24 -6 -30q-16 -14 -35 -14t-31 10t-12 25 q6 12 6 24l-6 41v203q0 27 -108 46.5t-160 19.5q-20 0 -36 -74.5t-31 -163.5t-30 -111q-48 0 -63 25q32 46 61.5 224t47.5 258.5t64.5 349.5t63 344.5t25.5 111.5t23 85q33 118 59 118q32 0 42.5 -14.5t18 -68t15 -136t13.5 -151.5q19 -216 23.5 -284t18.5 -98 q-4 -62 -4 -106.5t18 -77.5z" unicode="A"/>
<glyph glyph-name="B" horiz-adv-x="616" unicode="B" d="M172 1378l8 -491l6 -2q72 0 118 83q37 66 60 135t31 87v78q0 70 -51 134t-119 64q-53 0 -53 -88zM190 70l13 -2q63 0 147 64t96 114q12 49 11 125q0 367 -176 440q-20 -1 -54 -11t-47 -12q10 -300 10 -718zM514 473l-6 -88q0 -5 6 -23q-19 -144 -53 -202q-35 -58 -77 -90 t-110 -62q-14 0 -40 -10t-41 -10q-80 0 -80 28l10 519l-14 854q0 147 53 147q140 0 214 -90t73 -242q0 -152 -132 -330q29 -43 67 -93l56 -76q54 -71 64 -125t10 -107z"/>
<glyph glyph-name="C" d="M170 1008l-18 -148q0 -121 27 -404t55 -326q54 -83 161.5 -83t157.5 59q19 0 47 7l10 -11q0 -98 -156 -128q-37 -7 -83.5 -7t-109.5 46t-89 102t-51 348t-25 514t13 262q-7 35 -7 66q0 123 88 191.5t216 68.5q35 0 76.5 -22t41.5 -54q0 -23 -32 -23q-9 0 -25 12.5 t-26.5 12.5t-22.5 -4q-24 8 -49 8t-60.5 -10.5t-59 -27t-40 -44.5t-25.5 -53.5t-14 -65.5q-6 -57 -6 -141z" unicode="C"/>
<glyph glyph-name="D" horiz-adv-x="702" unicode="D" d="M162 1450l18 -340q0 -132 16 -392t15 -350q0 -92 -4 -202l4 -8v-58h10q77 42 136 118t91 160t54 182q33 162 33 314q0 599 -330 599q-41 0 -43 -23zM156 299l2 82q0 120 -14 279t-17 198q-9 18 -10 256t-5 264t-16 62q-14 36 -14 57q0 49 154 49h10q78 0 168 -86 t118 -155t36 -165t12 -177q4 -80 14 -101l-4 -55l6 -10l-6 -17l6 -10q-12 -19 -12 -57t-4 -70t-8 -50q-4 -17 -14 -53t-28 -114q-56 -220 -186 -325t-154 -105t-48 10t-27 31q29 37 32 82z"/>
<glyph glyph-name="E" horiz-adv-x="497" unicode="E" d="M199 61l123 7q96 0 96 -33q-17 -30 -61 -38.5t-85 -8.5h-48q-92 0 -106 14.5t-14 30.5l19 76v4q-8 41 -8 90l10 209l-12 438l10 407q0 37 -13 109.5t-14 106.5l37 57l143 18l7 -6q48 0 55.5 -12.5t7.5 -26.5q0 -39 -74 -39l-55 4q-45 0 -45 -24l16 -348l-10 -256l-4 -4 l12 -7l113 21q11 0 24 -11.5t13 -23.5q0 -41 -31 -41l-47 2q-78 0 -78 -39l15 -172l-7 -12v-416q11 -13 11 -57v-19z"/>
<glyph glyph-name="F" horiz-adv-x="438" unicode="F" d="M281 1481l-50 2q-75 0 -75 -47q0 -100 15 -296t15 -296q24 0 69 12t63 12t28 -14t10 -27q0 -25 -42 -31t-86 -10q-42 -4 -42 -24q0 -116 20 -346t19 -344l-6 -11q6 -15 6 -30q0 -35 -45 -35q-35 0 -35 139l2 66q0 103 -13 309t-13 309q0 594 -39 643v13q0 73 203 73 q34 0 34 -47q0 -20 -38 -20z"/>
<glyph glyph-name="G" horiz-adv-x="774" unicode="G" d="M571 463q64 0 64 -86q1 -61 21 -183t20 -182q0 -32 -27 -32q-49 0 -49 45q0 1 1 5t1 5q-20 -6 -52 -29t-48 -28t-48 -7q-31 -2 -47 -11q-133 30 -199 93q-54 51 -76 173q-38 203 -38 651q0 176 10 250q10 75 22 131t28 98t41 84q25 43 56 70q70 61 169 61q61 0 61 -35 q0 -25 -30 -25l-58 11q-157 0 -203 -287q-26 -156 -26 -408q-6 -163 -6 -225t1 -96t5 -87q4 -51 12 -93t20 -90t32 -84t48 -65q56 -62 157 -62t167 102q0 153 -18 209t-35 55l-82 -8q-47 0 -47 35q0 19 60 32t93 13zM407 -40q-1 0 -1 -1h4q-2 1 -3 1z"/>
<glyph glyph-name="H" horiz-adv-x="602" unicode="H" d="M410 825l-19 695q0 8 4 28q39 0 49 -54q9 -47 9 -262q0 -214 15 -662t15 -521q9 -19 9 -31t-12 -32t-25 -19q-29 0 -29 45l2 47q0 315 -20 703l-13 -2l-78 10q-102 0 -145 -25q0 -119 18 -354t17 -354q0 -31 -21 -31q-26 0 -34 24t-11 140q-3 118 -5 254t-5 174 q-37 500 -37 934l33 16l27 -22q-9 -76 -9 -152l17 -416l-2 -81q0 -41 8 -72l240 16z"/>
<glyph glyph-name="I" horiz-adv-x="477" unicode="I" d="M360 8l-65 10q-23 0 -47 -24q-46 0 -58 16h-5q-94 0 -109 35q0 23 47 23l45 -2q41 0 42 59v16q0 54 -6 128q-6 85 -7.5 169t-11.5 327t-13 349l2 240q0 99 -6 119l-70 -15q-22 0 -22 28.5t90 47t122 18.5q54 0 54 -33.5t-25 -33.5l-49 2q-35 0 -42 -33q-7 -27 -7 -159 t25.5 -523t25.5 -588l-2 -106l74 6q53 0 53 -51z"/>
<glyph glyph-name="J" horiz-adv-x="468" unicode="J" d="M209 -25q2 0 2 -2zM330 305l-11 -168q0 -23 7 -37l-15 -32q-4 -73 -55 -148t-111 -119q-43 0 -43 39q2 18 35 40t39 28q90 90 90 313q0 106 -10 303t-14 347q-11 498 -33 618l-109 -19q-12 0 -20 10t-8 21q0 51 282 51q14 0 24 -10t9 -22q0 -31 -95 -31h-22l-2 -39 q0 -54 12 -162t13 -204t19 -369q18 -272 18 -410z"/>
<glyph glyph-name="K" horiz-adv-x="690" unicode="K" d="M565 -47l-28 8q-40 237 -122 529t-149 419l-6 -4q-6 -24 -43 -87q-37 -64 -41 -100t-4 -143l10 -452q0 -129 -43 -129q-37 0 -37 94t14 284t13 285l-8 736l-4 8l-15 96q0 43 35 43q17 0 25 -4t14 -28q10 -36 10 -205l-8 -439h2q42 88 110 258t77 191q111 284 145 284 q35 0 35 -30q-5 -37 -26 -71t-26 -45t-34 -73t-50 -106q-21 -46 -47 -107q-57 -131 -61 -172l10 -18l-8 -6q69 -176 161 -508t140 -469q-3 -39 -41 -39z"/>
<glyph glyph-name="L" horiz-adv-x="475" unicode="L" d="M293 0l-64 2q-11 0 -28 -12t-31 -13q-14 0 -28 13t-15 30l12 93l-20 581l-21 856q0 21 27 21q39 0 39 -37q0 -474 10 -600t10 -156t-4 -80l6 -8q-4 -54 -4 -110t10 -212q10 -157 13 -223q-8 -12 -8 -41q-1 -29 9 -39t41 -10t42 13h76q28 -14 28 -32q0 -40 -28 -40 q-7 0 -31 8q-10 -4 -41 -4z"/>
<glyph glyph-name="M" horiz-adv-x="856" unicode="M" d="M633 1554q6 33 49 33q7 0 16 -10t9 -18q-7 -137 -7 -263t16 -435t17 -415q0 -106 -2 -132v-13q0 -27 5 -77q7 -65 7 -164t-30 -113v6l-8 -8l-39 16v6q0 13 6 25l-8 18q4 122 4 187l-15 673l4 230q1 35 -3 98t-5 84q-4 -4 -4 -14q-6 -133 -58 -404q-33 -209 -85 -381 q-3 -11 -11 -30q-18 -43 -18 -66l6 -10q-2 -7 -9 -53q-16 -101 -56 -101q-45 0 -48 159q0 26 -6 68t-90 446q-86 404 -98 421q-8 -185 -8 -414l6 -651l10 -195q0 -37 -16 -53q-58 0 -58 107l11 342l-8 415l6 486q0 117 -2 176l39 22q48 -6 180 -655q27 -136 42 -201 q15 -64 21 -92t13 -66q16 -77 16 -112q12 31 39 169l29 144q12 59 56 295t57 301q29 133 32 209z"/>
<glyph glyph-name="N" horiz-adv-x="772" unicode="N" d="M621 111l6 -74q0 -60 -52 -60q-36 0 -49 77q-7 36 -8 40q-200 631 -252 922q-2 9 -3 28q-2 41 -19 58l4 10q-13 76 -19.5 105.5t-14.5 66.5q-14 65 -36 117q-6 -42 -6 -64t4 -34q-14 -48 -14 -142v-561q0 -98 14 -292t14 -292l-14 -16h-47l-6 16q4 16 4 82l-23 713v268 l15 387l-2 43q0 26 13.5 34.5t35 8.5t37.5 -12.5t16 -39.5t9 -59t26 -71.5t26.5 -72t17.5 -104t19 -126.5t36 -148t57.5 -206t41.5 -148.5t24 -90.5q32 -114 34 -161q14 -21 21.5 -81t33.5 -82q13 29 13 98l8 713l-6 317l6 78q0 22 -6 26l6 17q0 126 -8 168q8 28 51 28 q33 0 33 -67q-13 -26 -13 -68l2 -69q0 -44 -8 -62l-6 -647q0 -19 4 -55l-4 -9v-258l4 -77q0 -122 -20 -168v-4z"/>
<glyph glyph-name="O" d="M303 1518q-151 0 -151 -607v-80q0 -142 21.5 -305.5t45 -265.5t66 -174t94.5 -72q70 0 102 142.5t38 253.5q7 152 7 198v49q0 38 -0.5 64.5t-1.5 87t-4 107.5t-8 114t-14 119.5t-20.5 112t-28 102.5t-37.5 80q-43 74 -109 74zM586 618l-19 -264l4 -8q-16 -69 -16 -124 t-22 -113.5t-65.5 -105t-93.5 -46.5t-93 38t-71.5 97.5t-50 141t-33.5 160t-20 162.5q-12 140 -12 242.5t9 233.5t10 169t2 67t5 69.5t10.5 71t19.5 62.5t32 53q42 47 117.5 47t124.5 -41q7 -11 36.5 -49t44 -72.5t32.5 -169.5q49 -350 49 -621z" unicode="O"/>
<glyph glyph-name="P" horiz-adv-x="540" unicode="P" d="M156 1505l24 -700l4 -4q22 1 32 11t20 21t14 15q133 133 133 334q0 70 -6 112q-7 42 -35 80t-48 56q-20 16 -58 44t-43 31h-37zM184 725l17 -674q-1 -31 -9 -47t-34 -16t-27 71l8 367l-16 332q1 228 -5 376t-8 196q-2 49 -2 74q-5 79 -18 132q19 29 53 29q73 0 131 -34 t94 -89q72 -115 72 -235t-43 -244q-54 -157 -138 -192q-27 -11 -37 -23q-17 -18 -38 -23z"/>
<glyph glyph-name="Q" horiz-adv-x="727" unicode="Q" d="M154 676v-86q0 -214 61 -370q23 -58 64 -99t94 -41l14 10q4 14 24 15t27 6q65 57 69 191q1 31 1 74t2 62t8 53t6 52v278q-8 20 -8 71q0 50 -4 98t-12 120t-10 95t-5 55q-2 32 -4 48q-2 18 -6 46t-10 45q-5 17 -15 39t-24 34q-14 13 -32 25q-35 23 -101 23 q-139 0 -139 -844zM106 915l-2 125q0 537 203 537q73 0 143 -58t82 -128q56 -316 56 -797q0 -277 -39 -393q-15 -43 -88 -148q1 -15 9 -38t12 -33q3 -10 7 -52q5 -40 9 -69t23 -53t52 -25q72 0 72 -27q0 -39 -78 -39q-9 0 -33 13t-28 14q-38 17 -58 63t-32 122t-19 98h-94 q-152 108 -188 301q-19 103 -19 245z"/>
<glyph glyph-name="R" horiz-adv-x="591" unicode="R" d="M178 1491l-10 -447q0 -88 6 -131h4q16 0 54 42t52 67t24 83q9 59 9 97q1 38 -5 80t-18 91t-38 81t-61 33v6zM121 1501l-4 37q0 18 41 18q84 0 128 -47t60 -101q14 -54 22 -82q17 -61 17 -95q0 -103 -57 -248q-37 -92 -37 -102q0 -99 80 -403t131 -431q0 -67 -27 -67 q-21 0 -35 18t-16 22q-6 80 -52 222t-58 190q-10 48 -37 194t-48 224l-16 12l-39 -16v-768l4 -51q0 -41 -37 -41q-15 0 -25 10t-10 24l7 11l8 1243v227z"/>
<glyph glyph-name="S" horiz-adv-x="569" unicode="S" d="M395 692l-2 -8q0 -1 47 -158q31 -122 31 -188t-15.5 -129t-45 -121t-81 -95.5t-99 -37.5t-67.5 2q-59 6 -83 49q0 25 21.5 25t58 -15.5t69.5 -15.5t70.5 38t57.5 94q40 114 40 213.5t-30 202.5t-73.5 188t-86.5 170q-103 202 -103 382q0 149 90 238q49 47 115 47 q21 0 54 -16.5t40 -34.5l-12 -23q-46 0 -67 21q-49 0 -84 -37q-66 -68 -66 -178q0 -81 13 -134.5t20 -81.5t25 -71t26.5 -64t33 -69t32 -62t37 -67.5t34.5 -63.5z"/>
<glyph glyph-name="T" horiz-adv-x="542" unicode="T" d="M342 545l10 -477q0 -80 -35 -80q-21 0 -32 28t-11 54l17 336q-1 108 -15 326t-14 329l2 192q0 211 -35 211l-116 -12q-15 0 -29 10t-14 25q0 21 136 40t216 19q15 0 29 -10t14 -25q0 -30 -39 -30l-76 6q-35 0 -43 -21q15 -129 15 -266l-3 -248q0 -242 29 -348 q-6 -30 -6 -59z"/>
<glyph glyph-name="U" horiz-adv-x="743" unicode="U" d="M627 426l2 -129q0 -173 -45 -255q-19 -34 -55 -57.5t-93 -23.5t-105 30.5t-74 76.5t-45.5 107t-27.5 115q-23 142 -45 183q0 163 -20.5 487.5t-20.5 487.5l-14 43q0 14 10.5 27.5t24.5 13.5q51 0 51 -150l18 -692q8 -10 10 -49q10 -142 19 -182q-4 -24 -4 -52t19.5 -94 t51 -130t78.5 -110t84 -46t55 8t28 17.5t16.5 31.5t8.5 33.5t4 41t1.5 36t-0.5 18.5l6 68v233l-14 123l-12 367v26l-9 12q9 58 9 117l-19 348q0 16 14.5 24.5t30.5 8.5l35 -33l-6 -16l6 -16l-14 -123l20 -369l10 -356l7 -2q-2 -14 -2 -43l6 -144l6 -6z"/>
<glyph glyph-name="V" horiz-adv-x="669" unicode="V" d="M362 236l-4 -5h7zM375 -18q-7 0 -31 8q-37 149 -106 606q-68 457 -104 671t-60 259q7 22 41 22q33 0 43 -74q2 -10 16 -86t74 -498t114 -648q10 60 16 117t48 418q76 653 76 739v8q30 30 51 30l12 -8h-4l21 -16q0 -43 -14 -127t-15 -127q-21 -38 -79 -584t-60 -665 q-17 -45 -39 -45z"/>
<glyph glyph-name="W" horiz-adv-x="950" unicode="W" d="M655 236q-4 0 -4 -3zM440 1053l-2 -4q-7 -35 -8 -103t-18 -148q-16 -80 -40 -380q-24 -301 -24 -412q0 -7 -12 -20t-26 -13q-14 -1 -24 13q-12 14 -16 40t-6 44q-2 33 -3 78t-7 92q-6 48 -18 106q-10 58 -16 96t-38 312q-85 723 -108 759q16 27 40 27t39 -38t23 -98 q8 -61 11 -117q5 -56 7 -113t10 -136t46 -350q40 -271 53 -379h4q-1 97 15 223t19 157q3 33 13 79t11 72q3 26 9 152q6 125 10 163q4 37 10 83t7 71l-2 37q0 26 29 40q61 0 61 -36l-10 -27q0 -228 85 -544t85 -533l6 -4q5 24 11 123t32 306t32 292q4 85 26 264t22 276l-2 39 q0 49 53 49q13 1 26 -9t13 -27t-22 -35q2 -4 2 -13q0 -13 -8 -45q-14 -120 -40 -452t-68 -570q-40 -238 -40 -387v-30q0 -24 -7 -37t-30 -13q-48 0 -74 315q-7 95 -63 364t-72 397z"/>
<glyph glyph-name="X" horiz-adv-x="565" unicode="X" d="M287 635h-4q0 -2 4 -2v2zM430 27q-37 0 -37 26q1 26 -3 58q-4 33 -8 55t-10 59q-45 256 -83 404q-9 -15 -61 -257t-58 -278t-8 -46q-7 -47 -22 -54q-14 -6 -24 -6t-22 8t-12 18t8 40t22 68q33 101 69 278q35 177 43 213t12 55t9 49q9 55 9 115t-12 134t-37 180 q-25 104 -31 134t-29 102t-24 113q15 27 33 27t28 -10t10 -21q2 -11 3 -30t7 -55t40 -180t47 -222q39 103 54 186q27 162 31 178t7 42t7 46t10 45q13 51 40 51q37 0 37 -20q-1 -20 -13 -50t-26 -79t-44 -200t-37 -192t-11 -61t-10 -52q-10 -63 -10 -107l108 -553l-4 -11 q0 -29 18 -83t17 -74t-11 -32q-10 -11 -22 -11z"/>
<glyph glyph-name="Y" horiz-adv-x="505" unicode="Y" d="M289 -25q-29 0 -29 50l10 395l-14 166q0 33 -12.5 96t-12.5 87t-5.5 53t-15.5 70t-14.5 63.5t-23.5 122.5q-41 209 -69.5 304.5t-28.5 121.5q0 42 41 42l24 -16q5 -83 53.5 -323t75.5 -277q32 94 44 235.5t20 214.5q18 160 57 160q31 0 31 -22q0 -16 -8 -44.5 t-11.5 -50.5t-23 -131t-28.5 -164q-27 -163 -27 -299l6 -67l-13 -31v-16l15 -246q0 -277 -4 -414l6 -6l2 -14q0 -23 -11.5 -41.5t-33.5 -18.5z"/>
<glyph glyph-name="Z" horiz-adv-x="471" unicode="Z" d="M352 -10l-243 -8q-21 0 -31 26q44 77 65 177t34 222t26 181q65 490 89 647q30 206 32 264l-138 -10q-92 0 -92 41l15 16q16 -4 49 -4l192 21q33 0 33 -37q-21 -49 -29 -155t-16 -162t-57 -434t-82 -580q-3 -22 -25 -74t-22 -82l133 10q86 0 86 -41z"/>
<glyph glyph-name="bracketleft" horiz-adv-x="514" unicode="[" d="M408 1489l-115 12q-62 0 -62 -43q1 -295 -25 -675t-34 -537t-20 -195v-49l-9 -16q7 -1 67 -4q144 -7 144 -50q0 -20 -46 -20t-132 14q-88 14 -88 39q0 85 22 253t21 295q1 127 27 463t26 505q0 11 -9 25t-11 22l41 24q235 0 235 -41q0 -10 -10 -16t-22 -6z"/>
<glyph glyph-name="backslash" horiz-adv-x="559" unicode="\" d="M82 1505q0 27 31 27q13 0 23 -41t70 -271t132 -548q72 -317 94 -400q43 -169 43 -241q0 -24 -20 -37q-25 2 -34 26t-13 38q-4 12 -7 34q-4 22 -6 29l-41 178q-19 83 -59 249t-63 267q-66 275 -88 391t-33 162q-29 120 -29 137z"/>
<glyph glyph-name="bracketright" horiz-adv-x="516" unicode="]" d="M252 1499l-115 -8q-59 0 -59 20q0 25 54 31t82 8q50 2 99 2l41 -24q-2 -8 -11 -22t-9 -25q0 -161 28 -485t27 -450q1 -126 21 -308t20 -273q0 -25 -88 -39t-132 -14q-46 0 -46 20q0 43 144 50q60 3 67 4l-8 16v49q-16 35 -39 489q-22 454 -26 576q-4 124 -10 210t-5 120 q0 34 -7 44t-28 9z"/>
<glyph glyph-name="asciicircum" horiz-adv-x="319" unicode="^" d="M117 1575q0 57 39 57q22 0 36 -14t15 -35q0 -45 -41 -45q-49 0 -49 37z"/>
<glyph glyph-name="underscore" horiz-adv-x="565" unicode="_" d="M285 1561l-15 26q0 58 52 58q22 0 40 -12q18 -13 17 -35q0 -22 -19 -38t-43 -16zM145 920q0 -267 25 -457q0 -219 56 -307q28 -42 71 -72q65 0 94 50q43 76 43 196t-20 250t-33 290q-13 158 -17 190t-6 66q-4 34 -7 54q-3 21 -9 54q-6 32 -17 54q-10 22 -24 44 q-28 42 -84 42q-72 0 -72 -368v-86zM100 1090q0 284 99 323q37 0 87 -16t50 -35q45 -55 75 -267t35 -352l5 -6q0 -44 13 -130t13 -130v-178q-13 -28 -21 -96t-20 -99q-24 -65 -119 -65q-165 0 -180 299q-2 32 -12 178t-13 207q-12 200 -12 367z"/>
<glyph glyph-name="grave" horiz-adv-x="550" unicode="`" d="M207 1622q-20 -4 -33 -4q-70 0 -70 41q0 36 13 45q74 0 92 -23q2 -1 24.5 -8.5t38.5 -13.5t42.5 -16.5t46 -19.5t38.5 -19q39 -22 39 -39q0 -7 -8.5 -12t-14 -5t-102.5 34.5t-106 39.5z"/>
<glyph glyph-name="a" horiz-adv-x="667" unicode="a" d="M223 406q0 -21 49 -35q75 -21 166 -21h21q-13 40 -13 92v47q0 127 -31.5 370t-33.5 362q-107 -529 -132.5 -653.5t-25.5 -161.5zM367 305l-54 -2q-29 12 -64 12t-38 -2t-4 -7t-2 -7l-4 -41q-4 -52 -19 -125q-28 -143 -59 -143q-13 0 -27 11t-14 24q26 77 54 233t35 194.5 t26 155.5t25 154t32.5 160t32 161t12.5 103q17 160 27 178l28 -2q25 0 37 12q13 0 25 -8.5t12 -22.5q0 -98 25 -379t39.5 -363.5t33.5 -162t19 -121.5l-10 -28q0 -46 17 -135.5t17 -126t-16 -45.5q-42 0 -51.5 12t-9.5 38.5t-3.5 65t-7 61.5t-12 72.5t-10.5 63.5 q-39 10 -92 10z"/>
<glyph glyph-name="b" horiz-adv-x="530" unicode="b" d="M184 934l-2 -143v-25l8 -27h15q135 0 135 273q0 37 -6 127l-4 4q-13 170 -103 170q-45 0 -45 -269zM172 150l2 -93q76 -1 130 71t54 151v3q1 18 1 35q1 17 -1 59t-7 76t-17 76t-30 71q-42 69 -116 69q-10 -152 -10 -270t6 -150q-12 -22 -12 -98zM121 1329q0 53 43 53 q28 0 106 -24t78 -43q-2 -4 -2 -6q38 -61 51 -121t13 -182t-33 -211h2q-7 -19 -31 -53t-29 -44q39 -30 63 -88t30 -103t8 -108l2 -53v-29q0 -196 -122 -290q-65 -50 -157 -50q-19 1 -29 13t-11 31t-1 63l21 432l-4 182l12 490q0 78 -2 119l-8 10v12z"/>
<glyph glyph-name="c" horiz-adv-x="550" unicode="c" d="M174 827l-8 -413q0 -173 33 -248q38 -88 97 -114q38 -17 77.5 -17t60.5 18q31 0 31 -22q0 -16 -27.5 -35.5t-50.5 -28.5h-68q-13 7 -48 18t-64.5 32.5t-55.5 71t-37 115.5q-18 108 -18 242v234q0 273 20 374q40 205 109 259q18 14 55.5 28.5t51.5 22.5h82q2 0 5.5 -1 t5.5 -1.5t5.5 -1.5t5 -1.5t4.5 -2t4 -2.5q9 -9 9 -21l-27 -30h-86q-42 0 -73 -39.5t-47.5 -93.5t-26.5 -125q-15 -107 -15 -207z"/>
<glyph glyph-name="d" horiz-adv-x="653" unicode="d" d="M477 592l-2 74l-10 206q-4 116 -71 246q-30 62 -82 103t-111 41q-23 0 -23 -410t23 -733l-2 -39l8 -4l6 -27h63q12 17 30 31t26 20q145 131 145 492zM537 717q0 -81 10 -99q-13 -67 -23 -181t-26 -174q-14 -60 -36 -103q-54 -102 -179 -170h-142q-18 0 -18 55 q-8 159 -8 356l4 484q0 213 -8 385q-17 14 -17 35t17 36t31 15t32 -16t26 -22q9 -4 43 -10q35 -6 57 -16q22 -12 73 -60t69 -61l-2 -4q2 -13 30 -53t36 -57q33 -89 33 -244z"/>
<glyph glyph-name="e" horiz-adv-x="491" unicode="e" d="M109 16l2 52l-7 8q15 41 15 84l-10 270l14 617l-8 245q0 58 59 58q23 0 33 -13q7 -2 59 -8q126 -14 129 -51q0 -16 -39 -39q-113 37 -166 39l-10 -12q2 -29 2 -88l-8 -318q0 -57 29 -57l69 4q78 0 80 -37q0 -21 -10.5 -37t-37.5 -16t-40 16l-67 10h-9l-10 -10v-6 q4 -53 4 -162l-4 -291q0 -204 28 -226q18 -15 66 -15l76 4q60 0 60 -27q0 -37 -89 -37h-169q-38 0 -41 43z"/>
<glyph glyph-name="f" horiz-adv-x="526" unicode="f" d="M111 1014v-2q-1 -2 -3 -2t-2 2t3 2h2zM176 346l12 -293q0 -82 -49 -82l-41 31q19 197 19 416q0 218 14 494t14 413q0 19 18 29t57 10q38 0 132 -15t94 -44q0 -35 -73 -35q-37 20 -84 20t-54 -2t-9 -5t-5 -15t-8 -21l-20 -432v-72q0 -7 35 -7h11q91 0 91 -31 q0 -17 -16 -28t-33 -11l-68 12q-37 0 -37 -100v-232z"/>
<glyph glyph-name="g" horiz-adv-x="688" unicode="g" d="M563 406l8 -314q-106 -106 -209 -106q-136 0 -178 56t-68 260q-24 204 -24 290t10 191t16 199t21 158q49 216 232 216q63 0 63 -29q0 -15 -14 -23t-27 -8l-39 4q-69 0 -108 -88q-42 -98 -52 -181t-16 -132q-5 -49 -7 -112q-3 -95 -3 -177t6 -131q16 -25 21 -81t9 -114 q4 -57 16 -113t53 -91t112 -35q123 0 123 327v150q-21 21 -72 21l-39 -2q-49 0 -49 24q0 35 49 35q189 0 189 -41z"/>
<glyph glyph-name="h" horiz-adv-x="606" unicode="h" d="M352 739l4 -4h-4v4zM394 1365q11 9 18 9t43 -12q0 -160 13 -478t13 -514q0 -194 13 -370l-13 -23q-2 21 -63 21q-10 455 -10 549l-5 8l7 18q0 32 -7 76l-32 8q-18 -6 -41 -6l-131 21l-21 -8l-6 -258l6 -9l12 -342q0 -53 -34 -53q-45 0 -45 123l4 375q0 186 -6 200 q10 20 10 136l-15 479q0 15 10 27t25 12q41 0 41 -119l-8 -500q0 -24 164 -24q38 1 56 15t18 80t-14 254t-13 283q0 13 11 22z"/>
<glyph glyph-name="i" horiz-adv-x="550" unicode="i" d="M424 16l-68 7q-16 1 -38 -11t-52 -12t-39 20l-34 -2q-44 0 -56 21q-1 13 11 21t16 14h59l8 8l7 43l-15 448l10 478q0 139 -10 237q-20 6 -61 6l-49 -4q-39 0 -39 35q0 9 18 17t31 8q285 0 285 -62q0 -6 -5 -16l-47 -4q-16 12 -59 12l-10 -6q6 -18 6 -109l-6 -487l14 -449 l-2 -63q0 -48 6 -57l-2 -5q0 -20 45 -20l60 2q61 0 61 -29q0 -17 -13 -29t-32 -12z"/>
<glyph glyph-name="j" horiz-adv-x="573" unicode="j" d="M72 -205l-2 8q0 9 74 57t81 56q33 37 49 113t17 143l-19 1088l-12 22q-9 4 -50 10q-99 13 -99 43q0 9 17 17t50 8q34 0 176 -29t142 -57t-33 -27l-111 21q-18 0 -18 -41l20 -850v-225q-12 -27 -12 -77q0 -49 -13 -101t-37 -104t-66 -87t-93 -35h-14z"/>
<glyph glyph-name="k" horiz-adv-x="677" unicode="k" d="M342 930l-4 -131q0 -93 70 -341q85 -298 144 -378q40 -53 40 -76q0 -41 -35 -41q-47 0 -115 184q-68 185 -114 381t-49 267l-5 8q-6 -15 -32 -67t-36 -73q-30 -71 -30 -145l-10 -147v-262l14 -117q0 -11 -10 -18t-30 -7q-18 1 -28 9t-10 34v385l19 258l20 396v284 q11 23 33 23t33 -12q12 -12 12 -27q-18 -33 -18 -101t-4 -213t-4 -217q19 8 159 282t154 275q52 0 55 -34q-128 -188 -219 -379z"/>
<glyph glyph-name="l" horiz-adv-x="497" unicode="l" d="M188 47l193 -6h6q11 1 21 -11t10 -24q0 -23 -33 -26q-53 2 -170 2l4 -2l-76 -7q-29 0 -34 47q4 20 4 68l12 1092l10 135q0 14 15 14l34 -8l-2 -162l2 -446q-6 -168 -6 -172l4 -174l-6 -17l2 2l-2 -16q0 -17 6 -29l-6 -196v-13q0 -32 2 -42t10 -9z"/>
<glyph glyph-name="m" horiz-adv-x="1054" unicode="m" d="M836 1149h-2l-3 -2l5 -2v4zM930 408l-4 -215q0 -143 20 -213q4 -12 4 -26t-12 -37t-33 -23q-41 0 -41 131q0 427 -6 521t-14 151q-8 58 -8 89l8 254q0 72 -8 97q-40 -32 -246 -863q-2 -7 -4 -30q-2 -22 -6 -42t-10 -41q-13 -46 -42 -46q-34 1 -48 17t-13 50 q0 84 -106 508t-142 459q-5 -110 -18 -337q-27 -473 -27 -635t2 -189q-9 -27 -43 -27q-7 0 -21 11t-14 18q0 216 32 646t32 646l-12 39q0 31 55 31q31 0 40 -32q7 -26 9 -52t7 -60q7 -34 53 -138t56 -141t26 -91q33 -117 44 -176l27 -54q6 -34 23 -100q34 -139 36 -221 q24 35 129 423t115 439t13 77q4 26 8 42t11 38q15 42 50 42q13 0 32 -12t19 -25q0 -858 27 -903z"/>
<glyph glyph-name="n" horiz-adv-x="862" unicode="n" d="M682 1247l-4 51q0 43 29 43q20 0 32.5 -19t12.5 -40v-137l-11 -17q0 -160 -22 -619.5t-43 -502.5q-6 -2 -30 -8q-3 -1 -5 -1q0 1 -2 1l1 -1q-19 -5 -28 -5q-10 0 -18 13.5t-12.5 35.5t-8.5 29l2 6q-13 85 -53.5 194.5t-52.5 147.5q-7 9 -55 153q-184 571 -232 617 q-16 -63 -16 -144l4 -161l-4 -99q0 -23 8 -143h-6q0 -341 14 -377v-184q8 -14 8 -36q0 -48 -38 -48q-43 0 -43 110l8 134l-13 589l13 363v36q0 27 1.5 36t3 21.5t4.5 19.5t7 16q8 18 21 29l6 -7l20 5q23 -8 28 -32q0 -2 2.5 -11.5t2.5 -10.5q35 -146 147 -407t136 -335.5 t43 -157.5q42 -184 92 -269l4 6q47 447 47 1116zM640 -3l1 -1v1h-1z"/>
<glyph glyph-name="o" horiz-adv-x="673" unicode="o" d="M158 717l4 -162q0 -195 44 -371q16 -66 47.5 -115t72 -49t71 30t48.5 83.5t30 109t17 124.5q8 110 8 196l-23 484l-8 16l4 10q0 89 -50 155t-122 66h-86q-17 0 -30 -182.5t-17 -202.5zM559 791l4 -244q0 -461 -148 -561q-36 -25 -81 -25q-240 0 -240 754q0 291 40 505 q30 156 91 156q14 0 26.5 -11t34 -18.5t59 -14.5t53.5 -10q41 -7 79 -79q86 -146 86 -442z"/>
<glyph glyph-name="p" horiz-adv-x="522" unicode="p" d="M178 1217l10 -295l-8 -193l13 -20q150 0 157 315v55t-2 56t-10 51t-20 45q-31 41 -95 41q-27 0 -36 -13t-9 -42zM180 395l17 -399q0 -37 -39 -37l-29 16q-23 123 -23 295l9 381q-13 30 -13 47q21 35 21 189q0 365 -12 397q20 51 30 51h90q25 -1 67 -23t67 -44 q51 -47 51 -242q0 -174 -15 -210t-32 -64t-43 -45q-57 -41 -146 -68v-244z"/>
<glyph glyph-name="q" horiz-adv-x="688" unicode="q" d="M147 702l7 -38v-89q0 -589 159 -589l60 12q41 0 76 116t51 232t16 168v358q0 443 -225 443q-65 0 -97 -138q-47 -206 -47 -475zM520 -434q-106 0 -135 33q1 91 -21 201t-26 132q-106 21 -154 76q-54 61 -72 255t-18 444q0 649 203 661q14 -6 44 -14t59 -20q29 -14 63 -48 t54 -82q20 -46 33 -91t19 -103q9 -87 9 -193v-96q0 -151 -23 -341q-45 -371 -121 -419q-3 -2 -14 -7q-25 -11 -25 -24q1 -77 23 -176t26 -119q15 -15 46 -14h7q50 -1 50 -27q0 -28 -27 -28z"/>
<glyph glyph-name="r" horiz-adv-x="550" unicode="r" d="M160 1260l8 -496l4 -4q39 0 70 40t47 99q33 120 33 182q0 61 -4 93t-17 67q-27 72 -117 72q-12 0 -18 -19t-6 -34zM102 1288q0 78 45 78q100 0 165 -50t65 -149v-149q0 -79 -80 -226q-27 -50 -27 -54t78 -324t81 -329q4 -10 20 -42t16 -55t-23 -23l-30 10 q-48 54 -105 400q-55 334 -94 334h-8q-45 0 -45 -29q0 -112 13 -372t22 -292l-15 -34h-30l-15 16q-33 887 -33 1290z"/>
<glyph glyph-name="s" horiz-adv-x="489" unicode="s" d="M317 1313v-2h2q0 2 -2 2zM303 1305l-43 12q-32 0 -56 -25.5t-36 -63.5q-25 -74 -25 -116t2 -60t7.5 -42t7.5 -34t11.5 -41.5t10.5 -35.5l15 -37q20 -36 52 -90.5t48 -82.5t37 -73.5t30 -82.5q25 -95 25 -170.5t-6 -121t-22.5 -93.5t-40.5 -84q-55 -84 -154 -84l-10 -5 q-60 11 -66 50l10 16l74 -14q47 0 81 36.5t51 92.5q30 104 30 192.5t-25.5 167t-61.5 143.5l-72 130q-87 157 -87 309q0 78 28 149q51 131 134 131q23 0 50.5 -17.5t27.5 -39.5q0 -16 -27 -16z"/>
<glyph glyph-name="t" horiz-adv-x="544" unicode="t" d="M418 1284l-111 14l-10 -12l4 -8q-4 -8 -4 -117t34 -509t34 -601q0 -15 -12 -27t-27 -12l-23 17l-4 149l4 72q0 28 -8 49q-1 174 -25 507t-26 492q-161 0 -172 39q9 23 39 23l278 -19l37 2q37 0 37 -26q0 -13 -15 -23t-30 -10z"/>
<glyph glyph-name="u" horiz-adv-x="651" unicode="u" d="M520 920l2 -41q-4 -52 -5.5 -140t-3 -167t-5.5 -171t-16 -165q-28 -174 -91 -232q-38 -36 -83 -36q-36 0 -76 23q-39 22 -65.5 55t-42.5 212.5t-19 378.5q-9 598 -19 682l13 29q47 -6 47 -113l6 -543l22 -434q0 -233 154 -233q95 0 120 429q2 29 9.5 277t7.5 598l-4 37 q0 23 29.5 23t35 -13.5t5.5 -121t-13 -158.5q2 -4 2 -13z"/>
<glyph glyph-name="v" horiz-adv-x="714" unicode="v" d="M301 1106v-4h-2q0 4 2 4zM358 141l-2 -4l2 -4v8zM602 1395q23 -7 23 -26t-5 -49t-14 -68q-10 -38 -14 -60t-34 -156t-42 -207q-11 -71 -24 -205t-19 -178q-5 -44 -25 -120t-24 -97q-4 -23 -6 -57t-6 -64t-12 -63q-16 -70 -64 -70l-23 19q0 334 -182 1136q-3 14 -17 64 q-38 136 -38 145t9 18t20 9t23 -18t20 -46t14 -55t11 -55t13 -56t19 -82t21 -98t22 -106t18 -96q7 -36 18 -105t16 -97q4 -28 16 -104t14 -96t16 -106q12 -86 14 -99q42 139 70 393t82 522t63 322z"/>
<glyph glyph-name="w" horiz-adv-x="847" unicode="w" d="M596 178v-2h2q0 2 -2 2zM592 -68q-35 0 -35 91q-4 54 -22 154t-22 131t-20 225q-40 485 -75 520q-21 -231 -21 -283q-1 -52 -9 -138t-29 -222t-23 -154t-7 -58q-3 -40 -9 -76t-14 -76q-16 -89 -42 -89q-32 -1 -48 91t-26 262t-14 204t-22 156t-22 172t-6 125 q-4 76 -7 123q-8 133 -41 221q10 16 28 16q18 -1 27 -13t13 -34t4 -40q2 -38 4 -82t46 -393q42 -348 46 -534q6 -15 10 -55t12 -55h2q22 150 28 196t16 118t14 112t10 101q10 93 14 224t16 210t11 106l37 16q13 0 24 -8t11 -17q0 -10 -5 -20q94 -318 114 -737 q7 -160 36 -236q27 76 43 358t16 393q-1 111 13 217t14 144t-8 50q0 32 41 32q17 0 23 -4t5 -38q0 -34 -10 -70l4 -13q-18 -81 -18 -145t4 -70l-12 -41l6 -14q-6 -11 -6 -19t6 -44l-6 -9q-1 -75 -17 -323t-21 -286t-15 -81t-11 -67q0 -224 -55 -224z"/>
<glyph glyph-name="x" horiz-adv-x="518" unicode="x" d="M178 45q0 -51 -31 -51q-38 0 -38 24q0 100 57 319t57 297q-1 78 -55 334t-74 279l2 15q0 13 -9 29t-9 24t14 14t26 6t22 -19q17 -30 20 -104q26 -68 52 -204t42 -191q13 27 33 165t29 251t22 117q4 1 16 3t17 3l18 -25q-33 -49 -33 -180l2 -25l-2 -2q-6 -60 -40 -224 t-35 -255q0 -33 53 -273t62 -262t16 -36q16 -25 16 -41q0 -29 -31 -29q-14 0 -26 6q-12 49 -38 155q-54 221 -77 343q-23 -34 -45 -214t-37 -224q4 -8 4 -25z"/>
<glyph glyph-name="y" horiz-adv-x="561" unicode="y" d="M350 442l2 -325q0 -148 -43 -148q-7 0 -17 8t-13 15q20 50 20 358q0 60 -7.5 171t-8.5 145l-13 26l6 25q-26 60 -96 259q-102 285 -104 331l28 22q20 -3 60 -130.5t78.5 -255.5t54.5 -132l8 37l-4 10q15 18 39.5 145.5t52.5 242t54 114.5t26 -22t-22 -99.5t-41 -141.5 t-28.5 -99t-21.5 -88q-24 -100 -24 -187q10 -25 10 -35l-12 -59z"/>
<glyph glyph-name="z" horiz-adv-x="538" unicode="z" d="M309 12l-121 6q-22 0 -44 -11t-29 -11q-31 0 -31 31q0 35 24 121q59 214 83 331t38 173t59 196q99 311 99 455l-192 -13q-13 0 -21 10t-8 23q0 33 227 33q51 0 51 -33q0 -71 -50 -225t-50 -183q-11 -56 -62 -227q-128 -426 -130 -625q20 -4 59 -4l86 7q59 0 59 -27 t-47 -27z"/>
<glyph glyph-name="braceleft" d="M90 188l6 215l8 242q0 89 -59 94q-8 3 -8 19t16 18q51 0 51 96l-14 433q0 115 36 177t95 62q22 0 50 -11t28 -24q0 -22 -33 -22l-41 8q-73 0 -73 -199v-252l6 -157q0 -49 -10 -80t-44 -49q34 -18 44 -48t10 -79l-6 -211v-223q0 -199 73 -199q59 0 67 -8t7 -19 q-1 -22 -69 -22t-104 62t-36 177z" unicode="{"/>
<glyph glyph-name="bar" horiz-adv-x="514" unicode="|" d="M193 2l-7 -70q0 -20 -26 -20t-30 3t-3 53t13 232q12 180 12 310t16 466q16 338 16 430v98t3 18q2 10 6 16q11 14 32 14q13 0 13 -22q0 -190 -20 -578t-19 -598q0 -210 -6 -303v-49z"/>
<glyph glyph-name="braceright" d="M246 1305l-6 -215l-9 -242q0 -89 60 -94q8 -2 8 -18t-16 -19q-52 0 -52 -96l15 -433q0 -115 -36 -177t-95 -62q-25 0 -51 8t-27 20q0 23 33 23l41 -2q73 0 73 199v252l-6 157q0 50 10 80t43 49q-33 17 -43 47t-10 80l6 211v223q0 199 -73 199h-31q-43 0 -43 21 q1 12 27 20t51 8q59 0 95 -62t36 -177z" unicode="}"/>
<glyph glyph-name="asciitilde" horiz-adv-x="653" unicode="~" d="M487 1149l-12 39q5 12 25 12t32 -22t11 -56q0 -34 -33 -68q-33 -32 -73 -32t-77 22t-56 40q-19 20 -52 59l-14 6h-37q-3 -12 -21 -25q-18 -14 -18 -26t10 -47l-22 -31q-13 0 -26 11t-13 24q0 63 32 104t93 41q66 -34 81 -45q15 -30 40 -55t44 -25t25 2l14 -4q5 14 20 23 q27 16 27 53z"/>
<glyph glyph-name="exclamdown" horiz-adv-x="329" unicode="¡" d="M150 350l-5 350v492l2 8h27l-6 -10q16 -39 16 -121l-2 -90q0 -163 22 -489t21 -490q1 -27 -23 -27q-24 -1 -46 17t-21 39zM88 1483q26 52 59 55q10 1 13 10q51 -3 51 -53q1 -32 -15 -54t-41 -22t-46 22t-21 42z"/>
<glyph glyph-name="cent" horiz-adv-x="651" unicode="¢" d="M162 977q-17 -140 -17 -189q0 -391 162 -391l8 4q0 149 -32 469q-13 215 -33 291q-40 -7 -66 -87q-23 -70 -23 -91q0 -4 1 -6zM365 221l6 -194q-1 -12 -9 -15q-3 -1 -6 -1q-5 0 -10 3q-8 5 -8 11l-4 -2q-4 114 -4 180v127q-116 47 -144 73q-56 52 -65 109 q-27 120 -27 330q0 312 164 401l-10 127q0 66 26 66l13 -9q-2 -17 -2 -65t10 -123q8 -3 43 -14t63 -21t52 -28q24 -19 24 -34q0 -34 -18 -34q-19 0 -35 24t-22 31q-6 5 -30 13t-32 18h-37l-2 4q1 -131 31 -384t30 -384l-2 -29q0 -18 17 -32q78 0 127 57q20 23 47 63 q22 -1 22 -39q1 -38 -71 -81t-117 -43h-18z"/>
<glyph glyph-name="sterling" horiz-adv-x="757" unicode="£" d="M586 49l-94 6l-7 -4q-38 23 -145 35l-35 4q-55 0 -93 -14t-99 -49q-31 6 -31 23q0 18 22 34t56 31t41 20q37 27 54 103t17 147q0 72 -18 156t-50 190t-44 158l-10 -2q-11 -1 -20 7t-9 21q0 29 26 29l-24 291q0 84 17 181q34 190 104 190h65q44 0 94 -80t50 -127l-19 -21 q-26 0 -36 22t-11 25v37q-3 4 -13 36t-28 32q-31 31 -63 31l-17 -7l-16 -14q-32 0 -54 -108t-22 -164v-84q10 -28 12 -88t4 -103t17 -43q35 0 107 14t96 13q41 0 41 -27q0 -32 -25 -32q-121 0 -219 -19q7 -15 11 -41t5 -31t9 -26t8 -29q0 -55 41 -188t41 -192t-7 -93 t-25 -86t-24 -70q50 -1 148 -23t149 -22q50 0 90 17l29 -21q0 -45 -96 -45z"/>
<glyph glyph-name="currency" horiz-adv-x="868" unicode="¤" d="M313 1075q0 -45 -29 -43q-13 0 -18 -8q-18 -26 -36 -152t-19 -157q0 -32 4 -56q-6 -25 -6 -79q0 -120 53 -168q0 -66 52 -98t112 -31q61 -1 102 25t67 70t45 94q19 52 28 110q18 108 18 186t-21 192t-53 134q-18 0 -28 14t-11 33q-21 29 -63 46t-76 17t-85 -42t-54 -68z M383 1264q113 0 221 -74q13 2 34 36t46 69q25 34 49 34l29 -31q-2 -16 -48 -74t-46 -74t45 -154t45 -224q0 -113 -50 -282q-18 -62 -18 -92t20 -61q20 -30 38 -53q20 -23 20 -36q0 -29 -27 -29q-55 0 -55 39q-39 70 -43 76q-93 -103 -244 -103q-49 -1 -97 27t-83 68 q-12 0 -23 -25q-35 -74 -65 -74q-25 0 -33 13t-8 39q0 4 42 50t48 66q-35 57 -35 161t5 191q5 88 23 193t46 135q0 21 -49 73t-49 64q-1 23 23 23t42 -16q18 -17 37 -43q18 -26 29 -35q8 6 38 38q80 85 93 85z"/>
<glyph glyph-name="yen" horiz-adv-x="942" unicode="¥" d="M510 143l2 -53q0 -74 -47 -74q-41 0 -41 25q6 13 16 125t11 141l16 467q0 11 -4 23q-98 0 -256 -11q-19 11 -35 39l8 27q162 0 293 8q4 31 4 94q0 27 -22 27l-148 -8q-114 0 -114 37l14 22l160 -2q98 0 110 14v39q-24 13 -100 151q-77 138 -165 290t-138 192v31 q24 8 32 8q8 1 30 -21t48 -58t48 -68t45 -68t28 -43q1 -18 41 -77q40 -58 43 -64t17 -33t26 -47t28 -48q33 -55 48 -57q22 44 38 99q16 54 36 116q18 62 36 120t38 122q46 138 62 160t33 22q37 0 37 -30q-40 -94 -93 -277t-81 -258q0 -38 -32 -103t-33 -95q26 -13 51 -13 l221 10q11 0 37 -43q-2 -26 -151 -26h-158l-4 -111h227l39 2q43 0 43 -45q0 -11 -13 -21t-24 -9h-8l4 2q-30 8 -37 8h-227l-8 -4q1 -109 -15 -327t-16 -327z"/>
<glyph glyph-name="brokenbar" horiz-adv-x="514" unicode="¦" d="M213 604l-10 -336q0 -128 -6 -176v-49l-7 -70q0 -18 -6 -19t-20 -1q-12 0 -16 3t-3 13l11 400l4 192q0 49 14 57t23 9q10 0 12 -1q4 -2 4 -22zM238 1530l-11 -316q0 -157 -6 -217v-49l-6 -69q-1 -21 -19 -21t-22 3t-4 13l14 613q0 38 6 47q14 18 35 18q13 0 13 -22z"/>
<glyph glyph-name="section" horiz-adv-x="489" unicode="§" d="M309 391q27 63 27 123t-20 114t-44 91q-24 36 -62 91q-39 55 -58 87q-25 -61 -25 -125q-1 -64 19 -119t42 -89t62 -88t59 -85zM303 1305l-43 12q-32 1 -56 -25t-36 -64q-25 -74 -25 -146q-1 -72 33 -132q34 -62 78 -124t70 -96q65 -86 65 -192t-47 -184q31 -68 31 -118 q1 -50 -9 -95t-28 -91t-51 -76t-65 -31t-60 17t-27 40q0 16 27 16l43 -12q82 0 110 133q6 29 6 81q-1 52 -33 116t-77 132t-71 106q-64 94 -64 206t45 183q-29 66 -29 120t10 99t27 91q18 47 51 77t65 30q31 0 59 -18t28 -39q0 -16 -27 -16z"/>
<glyph glyph-name="dieresis" horiz-adv-x="776" unicode="¨" d="M201 1006q0 -17 -16.5 -26t-34 -9t-28.5 17t-11 34.5t15.5 34t33.5 16.5q41 0 41 -67zM583.5 993.5q-12.5 14.5 -12.5 32t15.5 33.5t33.5 16t32 -16.5t14 -32.5q0 -47 -54 -47q-16 0 -28.5 14.5z"/>
<glyph glyph-name="copyright" horiz-adv-x="1157" unicode="©" d="M731 1380q57 -77 57 -105t-26 -28q-36 0 -73 82q-15 31 -43 57t-69 25q-41 0 -74 -29t-51 -70q-18 -42 -30 -102t-18 -108q-4 -48 -8 -106t-7 -78l4 -9q-8 -27 -8 -59v-44q1 -232 23 -304t47 -105v-6q24 -27 37 -39q12 -12 42 -28q30 -15 66 -15t69 17t50 38q45 54 59 54 q31 0 31 -46q1 -46 -75 -84t-115 -38t-65 6t-40 12q-16 6 -44 22q-28 15 -42 21q-81 102 -102 233q-15 101 -15 198v122q-1 139 15 243q16 105 28 145t33 86q20 46 45 74q60 65 139 65q43 0 73 -10t87 -87zM975 475l22 113v305q-1 45 -19 133t-20 98q-64 400 -286 553 q-10 10 -20 15t-20 12q-10 8 -14 10l-14 7t-16 7t-14 4q-16 5 -33 5q-240 0 -329 -383q-42 -185 -42 -414q0 -82 8 -195t11 -167t6 -92t13 -104t24 -103q14 -38 39 -86q26 -48 61 -73q86 -63 196 -63q110 1 186 29t126 84q92 104 137 295q-2 4 -2 10zM120 503q-2 37 -12 202 t-10 225t4 126q4 67 14 155q12 87 30 165t52 155q32 77 74 133q96 124 244 124q161 0 272 -115q110 -114 168 -277q62 -178 80 -303q29 -201 29 -337q0 -754 -500 -754q-265 0 -365 171q-63 106 -80 330z"/>
<glyph glyph-name="ordfeminine" horiz-adv-x="692" unicode="ª" d="M558 393q0 -7 -133 -13t-184 -5q-51 -1 -65 9t-14 26q0 6 134 12t216 6q16 0 31 -10t15 -25zM263 892l74 -16q85 -8 99 -14h21l-98 420q-56 -250 -96 -390zM365 817l-54 -2q-14 6 -64 12l-52 -175q-36 -134 -46 -144q-9 -10 -27 4t-18 27q41 67 185 672q15 137 25 155 l28 -2q25 0 37 12q13 0 25 -8t12 -23l134 -679q17 -90 17 -126t-16 -46q-41 0 -51 12t-10 38t-4 66q-4 38 -6 61q-4 23 -12 73t-11 63q-39 10 -92 10z"/>
<glyph glyph-name="guillemotleft" horiz-adv-x="741" unicode="«" d="M633 0l-27 4h-4q-32 47 -69 131t-48 107l-102 213q-5 11 -21 43t-24 51q-6 19 -44 69t-38 78t48 141t106 243t64 152t16 55q10 34 18 59q23 71 49 75l27 -20q-18 -119 -140 -362q-116 -233 -116 -339q0 -16 141 -304t174 -343l19 -14q-2 -11 -11 -25t-18 -14zM488 -28 q-16 -7 -24 -7q-9 -1 -21 13t-26 38t-24 42t-22 43t-24 47t-50 96t-91 178q-124 248 -124 268t58 164t124 310q67 165 78 194v2q40 106 57 106q38 0 41 -28q-30 -46 -58 -118t-53 -139q-27 -67 -99 -269t-85 -220q5 -74 271 -536q88 -154 88 -166t-16 -18z"/>
<glyph glyph-name="logicalnot" horiz-adv-x="497" unicode="¬" d="M449 766l-9 -66q0 -117 1 -152q1 -50 -25 -50q-11 0 -23 10t-12 20l-6 199q0 8 -9 10t-42 2h-33l-127 -6h-162q1 0 -1 5q-7 20 -7 32t14 12l135 9l191 6q47 0 67 4q48 -6 48 -35z"/>
<glyph glyph-name="uni00AD" horiz-adv-x="620" unicode="­" d="M508 739q0 -7 -132 -13t-184 -5q-51 -1 -65 9t-14 26q0 6 134 12t216 6q15 0 30 -10t15 -25z"/>
<glyph glyph-name="registered" horiz-adv-x="1161" unicode="®" d="M438 1415q0 -440 34 -440q34 -1 112 63t93 109t15 99v71t-4 49q-2 32 -6 54t-14 48t-24 42q-32 38 -98 38t-86 -26q-22 -26 -22 -107zM465 913q-6 -79 -6 -147q1 -68 23 -262t22 -254t-6 -72q-6 -10 -27 -10t-35 11t-14 30q0 176 -5 233q-5 56 -17 126t-13 108v399 q-1 63 -13 187t-12 184q0 59 11 91t37 49q42 26 117 26t111 -14t58 -42q22 -27 38 -58q15 -31 22 -73q12 -72 12 -148q0 -77 -14 -127t-36 -76q-20 -26 -41 -42q-21 -18 -35 -32t-15 -32q0 -17 46 -186q134 -491 142 -491v-2l31 -90q0 -15 -39 -31q-60 0 -127 316 q-10 49 -20 78t-34 134q-58 244 -73 244q-17 0 -43 -14t-45 -13zM172 1042l14 -426q0 -551 202 -662q45 -25 58 -38q35 -14 68 -14l18 -8q260 0 376 230q89 177 89 583q0 588 -123 944l15 16q-20 50 -58 64q-37 39 -61 61q-73 63 -151 63q-79 0 -145 -30q-66 -29 -112 -79 t-80 -120q-36 -70 -56 -142t-32 -154q-22 -143 -22 -288zM102 715l2 270q0 930 502 930q81 0 162 -53t133 -127q32 -9 40 -46q8 -39 28 -57q0 -44 38 -257q58 -326 58 -455v-66q0 -320 -15 -426t-31 -190q-33 -170 -109 -248t-143 -118q-67 -38 -151 -38t-149 19t-113 51 t-88 80q-38 48 -64 99t-45 118t-29 126t-17 133q-9 111 -9 255z"/>
<glyph glyph-name="macron" horiz-adv-x="620" unicode="¯" d="M377 702h-123t-66 1q-22 1 -32 3t-22 6q-21 6 -21 23q2 17 131 17h116q118 0 133 -10q14 -10 14 -24q0 -16 -130 -16z"/>
<glyph glyph-name="degree" horiz-adv-x="868" unicode="°" d="M306 1024q-50 59 -50 110q0 50 15 104t52 97t105 43t126 -55t58 -133q0 -225 -190 -225q-66 0 -116 59zM314 1214q-12 -46 -13 -88q0 -42 36 -82q37 -40 85 -40t79 18t45 46q27 52 27 112q1 60 -41 106t-114 45q-36 1 -64 -35t-40 -82z"/>
<glyph glyph-name="plusminus" horiz-adv-x="620" unicode="±" d="M401 389q0 -33 -43 -33q-12 0 -28 9t-15 20v64l4 106q0 60 -29 65q-14 3 -40 3l-90 -11q-60 0 -60 43q0 29 23 29l108 -6q84 0 84 16l-10 205q1 25 9 35t32 10q37 0 37 -35l-8 -20l8 -162q-1 -29 13 -39t44 -10l123 6q64 0 64 -35t-35 -35l-125 7q-65 0 -71 -11 q-13 -22 -13 -58t9 -86t9 -77zM541 236q0 -7 -134 -13t-184 -6q-50 -1 -64 9t-14 26q1 6 135 12t182 6q79 0 79 -34z"/>
<glyph glyph-name="uni00B2" horiz-adv-x="571" unicode="²" d="M428 2l-299 -18q-19 0 -35 11t-16 30q35 43 69 139t41 110q118 256 176 488t58 487q0 295 -127 295q-29 -12 -45 -42t-20 -60q-8 -76 -35 -76t-27 37t11 77t37 72q26 33 60 33q86 0 139 -65t56 -154l-4 -4l6 -150q0 -167 -46 -408t-110 -384q-5 -12 -52 -109 q-109 -225 -111 -270l16 -2q71 13 246 22l30 -32z"/>
<glyph glyph-name="uni00B3" horiz-adv-x="589" unicode="³" d="M315 844l-20 -2q-23 0 -39 8v8l-10 10q2 7 22 31q20 23 44 53t45 79q20 49 20 91t-2 78q-1 36 -9 92t-21 97t-39 71t-60 31q-34 -1 -56 -19t-31 -40q-22 -58 -48 -58q-12 0 -23 8t-12 21q32 65 72 101t85 36q74 0 111 -49l6 -2q82 -119 82 -387q0 -50 -37 -115 q-9 -6 -33 -47t-34 -51q80 -32 112 -124q22 -65 35 -148t22 -123q13 -57 13 -110q0 -54 -1 -80t-5 -67t-11 -71t-21 -64t-33 -54q-44 -50 -101 -50t-100 20t-43 56l16 10q25 -2 52 -22t36 -25q156 0 156 260q0 233 -32 347q-34 121 -108 200z"/>
<glyph glyph-name="acute" horiz-adv-x="497" unicode="´" d="M135 1309q-37 0 -37 30q0 12 121.5 105.5t132.5 103.5q45 0 45 -32q0 -1 -6 -31q-103 -46 -256 -176z"/>
<glyph glyph-name="uni00B5" horiz-adv-x="743" unicode="µ" d="M627 426l2 -129q0 -173 -45 -255q-19 -34 -55 -58t-85 -23q-160 0 -229 197v-113q4 -10 4 -31l-2 -45l19 -184q0 -17 -15 -25t-29 -8t-24 11t-10 24l-2 31l-2 123l-4 204l-11 357q-1 153 -21 469t-20 477l-14 43q0 13 10 27t25 14q51 0 51 -150l18 -692q8 -10 10 -49 q10 -142 19 -182q-4 -24 -4 -52q-1 -28 19 -94t52 -130t78 -110q47 -46 84 -46t55 8q18 7 28 17q11 10 17 32t8 34t4 40q2 30 2 36t-1 19l6 68v233l-14 123l-12 367v26l-9 12q9 58 9 117l-19 348q0 17 14 25t31 8l35 -33l-6 -16l6 -16l-14 -123l20 -369l10 -356l7 -2 q-2 -14 -2 -43l6 -144l6 -6z"/>
<glyph glyph-name="uni00B5" horiz-adv-x="743" unicode="μ" d="M627 426l2 -129q0 -173 -45 -255q-19 -34 -55 -58t-85 -23q-160 0 -229 197v-113q4 -10 4 -31l-2 -45l19 -184q0 -17 -15 -25t-29 -8t-24 11t-10 24l-2 31l-2 123l-4 204l-11 357q-1 153 -21 469t-20 477l-14 43q0 13 10 27t25 14q51 0 51 -150l18 -692q8 -10 10 -49 q10 -142 19 -182q-4 -24 -4 -52q-1 -28 19 -94t52 -130t78 -110q47 -46 84 -46t55 8q18 7 28 17q11 10 17 32t8 34t4 40q2 30 2 36t-1 19l6 68v233l-14 123l-12 367v26l-9 12q9 58 9 117l-19 348q0 17 14 25t31 8l35 -33l-6 -16l6 -16l-14 -123l20 -369l10 -356l7 -2 q-2 -14 -2 -43l6 -144l6 -6z"/>
<glyph glyph-name="paragraph" horiz-adv-x="937" unicode="¶" d="M535 1696l2 57q-19 19 -121 19t-184 -100t-82 -201t24 -157t73 -88q87 -55 247 -55q38 1 48 9t11 32zM784 264l13 -229q-1 -13 -11 -23t-24 -10q-51 0 -51 100l18 1074l-14 446l2 66q0 50 -19 77t-75 27q-23 0 -23 -111t14 -347t13 -333q0 -97 -2 -181t-4 -143t-7 -164 t-8 -143q-14 -229 -18 -313q4 -8 4 -16q0 -7 -14 -17t-25 -10q-39 0 -39 41q0 151 22 454t21 454l-4 157h-172q-29 12 -73 25t-72 23q-26 10 -56 27q-58 35 -82 130q-2 7 -4 30t-8 34q0 157 62 271q37 66 92 97q27 15 80 29q54 14 74 24q20 8 50 12t68 5t57 4q11 20 49 20 l80 -16q31 0 47 4q11 -13 41 -17t53 -10t23 -22q0 -29 -41 -29q-15 0 -39 4l15 -624z"/>
<glyph glyph-name="periodcentered" horiz-adv-x="327" unicode="·" d="M126 712q-14 16 -13 34q1 20 17 38t35 17q19 1 35 -17t15 -36q0 -52 -57 -52q-18 0 -32 16z"/>
<glyph glyph-name="cedilla" horiz-adv-x="468" unicode="¸" d="M250 -190l-55 -7q-31 0 -56 41q17 39 17 117v23l59 8q-8 -47 -8 -103q149 -10 149 -206q0 -48 -46.5 -105t-108.5 -57q-29 0 -58.5 14.5t-29.5 38t22 23.5q13 0 33 -10.5t39 -10.5t41 29t22 55l-6 29q0 6 9 11.5t10 6.5q0 53 -8 71.5t-25 31.5z"/>
<glyph glyph-name="uni00B9" horiz-adv-x="606" unicode="¹" d="M481 14l-252 -8q-14 0 -23 9t-9 22l10 20l55 -2q29 0 40 13t11 43q0 258 -13 470q-15 240 -46 703l2 70q0 60 -19 94t-75 35l-47 -4q-35 0 -35 22q0 29 180 29q14 0 24 -10t9 -23h4q-6 -31 -6 -79q-1 -48 15 -177t16 -219t17 -318t17 -292q0 -62 -4 -78q13 -52 13 -232 l-3 -30l9 -6l92 6q63 0 63 -29t-45 -29z"/>
<glyph glyph-name="ordmasculine" horiz-adv-x="729" unicode="º" d="M552 449q0 -7 -132 -13t-184 -5q-51 -1 -65 9t-14 26q0 6 134 12t216 6q15 0 30 -10t15 -25zM202 954q4 -356 167 -356q175 0 175 244q0 304 -64 368q-83 84 -135 84q-125 0 -143 -340zM607 826q0 -162 -148 -263q-36 -25 -81 -25q-242 0 -242 349q0 31 2 76t40 257 q11 61 66 94q31 19 83 19t115 -11q41 -7 79 -79q81 -130 86 -417z"/>
<glyph glyph-name="guillemotright" horiz-adv-x="741" unicode="»" d="M602 854q58 -144 57 -157q0 -13 -36 -92t-89 -183q-76 -151 -114 -224t-50 -97q-12 -23 -22 -43t-24 -43q-29 -50 -45 -50q-9 0 -25 7q-16 6 -16 18t88 166q265 464 270 536q-14 18 -86 220t-98 269t-40 104t-22 56q-27 64 -49 97q3 28 41 28q17 0 57 -106v-2 q11 -29 78 -194q67 -166 125 -310zM139 4l-30 -4q-9 0 -18 14t-11 25l18 14q36 65 176 347t140 300q0 106 -116 339q-122 243 -140 362l26 20q28 -6 50 -75q6 -24 16 -58t17 -56t65 -151q153 -344 153 -378q1 -34 -37 -85q-38 -52 -45 -70t-24 -50t-21 -43l-176 -365 q-37 -77 -43 -86z"/>
<glyph glyph-name="onequarter" horiz-adv-x="1691" unicode="¼" d="M1620 567q0 -26 -43 -26q-7 0 -15 1q-21 2 -39 -8t-18 -50t6 -178t13 -154q-2 -8 -2 -40t8 -44l-6 -25l6 -14v-29l-33 -25l-31 13v73l-2 5q9 37 9 73l-15 209l4 92q0 80 -20 90l-121 -12q-27 0 -39 10t-16 13v6q0 15 10 65l-19 41l19 101l20 401v326l-8 51q0 27 31 27 t31 -29l-9 -164q0 -30 7 -70l-5 -6q5 -45 5 -94t-12 -221t-13 -258l14 -60l-14 -55q-1 -39 19 -39t56 6t48 13q0 99 -8 283t-15 239q-8 55 -8 76q0 32 39 32l19 -22l12 -289q-1 -63 5 -187t15 -132l76 8q39 0 39 -23zM1085 1505q0 -17 -20 -99t-33 -142t-219 -965l-41 -178 q-2 -7 -6 -29t-7 -34q-3 -13 -9 -29q-12 -33 -37 -35q-21 14 -21 48t10 89q10 56 34 142q22 86 93 401q71 316 131 546t64 241q2 11 6 22t7 23q9 26 18 26q30 0 30 -27zM481 14l-252 -8q-14 0 -23 9t-9 22l10 20l55 -2q29 0 40 13t11 43q0 258 -13 470q-15 240 -46 703l2 70 q0 60 -19 94t-75 35l-47 -4q-35 0 -35 22q0 29 180 29q14 0 24 -10t9 -23h4q-6 -31 -6 -79q-1 -48 15 -177t16 -219t17 -318t17 -292q0 -62 -4 -78q13 -52 13 -232l-3 -30l9 -6l92 6q63 0 63 -29t-45 -29z"/>
<glyph glyph-name="onehalf" horiz-adv-x="1736" unicode="½" d="M1593 2l-299 -18q-20 0 -36 11t-15 30q35 45 70 141t41 108q117 255 175 487t58 488q0 295 -127 295q-28 -12 -44 -42t-20 -60q-9 -76 -36 -76t-27 37t11 77q12 40 38 72q26 33 60 33q86 0 138 -65t56 -154l-4 -4l6 -150q0 -168 -46 -408t-109 -384q-6 -13 -53 -109 q-109 -227 -111 -270l16 -2q71 13 246 22l31 -32zM1085 1505q0 -17 -20 -99t-33 -142t-219 -965l-41 -178q-2 -7 -6 -29t-7 -34q-3 -13 -9 -29q-12 -33 -37 -35q-21 14 -21 48t10 89q10 56 34 142q22 86 93 401q71 316 131 546t64 241q2 11 6 22t7 23q9 26 18 26 q30 0 30 -27zM481 14l-252 -8q-14 0 -23 9t-9 22l10 20l55 -2q29 0 40 13t11 43q0 258 -13 470q-15 240 -46 703l2 70q0 60 -19 94t-75 35l-47 -4q-35 0 -35 22q0 29 180 29q14 0 24 -10t9 -23h4q-6 -31 -6 -79q-1 -48 15 -177t16 -219t17 -318t17 -292q0 -62 -4 -78 q13 -52 13 -232l-3 -30l9 -6l92 6q63 0 63 -29t-45 -29z"/>
<glyph glyph-name="threequarters" horiz-adv-x="1675" unicode="¾" d="M1604 567q0 -26 -43 -26q-7 0 -15 1q-21 2 -39 -8t-18 -51q-1 -41 5 -178t13 -153q-2 -8 -2 -40t8 -44l-6 -25l6 -14v-29l-32 -25l-31 13v73l-2 5q8 33 8 73l-14 209l4 92q0 80 -21 90l-120 -12q-27 0 -39 10t-17 13v6q0 10 11 65l-19 41l19 101l20 401v326l-8 51 q0 27 30 27t31 -29l-8 -164q0 -36 6 -70l-4 -6q4 -36 4 -57l-24 -516l14 -60l-14 -55q-1 -39 19 -39t56 6t48 13q0 74 -8 270t-16 252q-8 55 -7 76q0 32 39 32l18 -22l12 -289q0 -60 6 -185t15 -134l76 8q39 0 39 -23zM1038 1532q31 0 31 -27q0 -17 -20 -99t-33 -142 t-219 -965l-41 -178q-2 -7 -6 -29t-8 -34q-4 -13 -9 -30q-12 -32 -37 -34q-20 13 -20 47t10 90t34 142q22 86 93 401q71 316 131 546t64 241q2 11 5 22t7 23q9 26 18 26zM315 844l-20 -2q-23 0 -39 8v8l-10 10q2 7 22 31q20 23 44 53t45 79q20 49 20 91t-2 78q-1 36 -9 92 t-21 97t-39 71t-60 31q-34 -1 -56 -19t-31 -40q-22 -58 -48 -58q-12 0 -23 8t-12 21q32 65 72 101t85 36q74 0 111 -49l6 -2q82 -119 82 -387q0 -50 -37 -115q-9 -6 -33 -47t-34 -51q80 -32 112 -124q22 -65 35 -148t22 -123q13 -57 13 -110q0 -54 -1 -80t-5 -67t-11 -71 t-21 -64t-33 -54q-44 -50 -101 -50t-100 20t-43 56l16 10q25 -2 52 -22t36 -25q156 0 156 260q0 233 -32 347q-34 121 -108 200z"/>
<glyph glyph-name="questiondown" horiz-adv-x="464" unicode="¿" d="M281.5 1516.5q13.5 -15.5 13.5 -34.5t-16.5 -36.5t-35.5 -17.5t-34.5 17.5t-15.5 35.5q0 51 57 51q18 0 31.5 -15.5zM354 241q15 -77 15 -117.5t-6 -68.5t-19 -53q-28 -56 -104.5 -56t-98.5 44q-45 90 -45 206.5t15.5 207t36.5 171t41 173.5q38 180 38 419q0 56 -2 115 q1 -2 4 0q10 6 21 6q18 0 23 -24q0 -307 -39 -559q-9 -51 -33 -149q-51 -216 -51 -335q0 -107 21.5 -168.5t51.5 -61.5h23q72 0 72 127q0 28 -15 123l25 8q23 2 26 -8z"/>
<glyph glyph-name="Agrave" d="M210 1747q-20 -4 -33 -4q-70 0 -70 41q0 36 13 45q74 0 92 -23q2 -1 24.5 -8.5t38.5 -13.5t42.5 -16.5t46 -19.5t38.5 -19q39 -22 39 -39q0 -7 -8.5 -12t-14 -5t-102.5 34.5t-106 39.5zM231 426q86 -29 207 -29q25 0 37 4l10 -4q19 0 19 19q0 428 -80 923q-1 6 -4.5 22 t-3.5 25q-25 -71 -27 -90l6 -12q-7 -7 -23 -70.5t-44.5 -262t-41 -255t-26.5 -102.5q-29 -102 -29 -156v-12zM567 600l23 -534v-22q0 -24 -6 -30q-16 -14 -35 -14t-31 10t-12 25q6 12 6 24l-6 41v203q0 27 -108 46.5t-160 19.5q-20 0 -36 -74.5t-31 -163.5t-30 -111 q-48 0 -63 25q32 46 61.5 224t47.5 258.5t64.5 349.5t63 344.5t25.5 111.5t23 85q33 118 59 118q32 0 42.5 -14.5t18 -68t15 -136t13.5 -151.5q19 -216 23.5 -284t18.5 -98q-4 -62 -4 -106.5t18 -77.5z" unicode="À"/>
<glyph glyph-name="Aacute" d="M274 1674q-37 0 -37 30q0 12 121.5 105.5t132.5 103.5q45 0 45 -32q0 -1 -6 -31q-103 -46 -256 -176zM231 426q86 -29 207 -29q25 0 37 4l10 -4q19 0 19 19q0 428 -80 923q-1 6 -4.5 22t-3.5 25q-25 -71 -27 -90l6 -12q-7 -7 -23 -70.5t-44.5 -262t-41 -255t-26.5 -102.5 q-29 -102 -29 -156v-12zM567 600l23 -534v-22q0 -24 -6 -30q-16 -14 -35 -14t-31 10t-12 25q6 12 6 24l-6 41v203q0 27 -108 46.5t-160 19.5q-20 0 -36 -74.5t-31 -163.5t-30 -111q-48 0 -63 25q32 46 61.5 224t47.5 258.5t64.5 349.5t63 344.5t25.5 111.5t23 85 q33 118 59 118q32 0 42.5 -14.5t18 -68t15 -136t13.5 -151.5q19 -216 23.5 -284t18.5 -98q-4 -62 -4 -106.5t18 -77.5z" unicode="Á"/>
<glyph glyph-name="Acircumflex" d="M519 1673l-27 17q-10 124 -59 307q-26 -66 -55 -156t-31 -110l-35 -47l-37 26q2 45 71.5 195.5t99.5 150.5t30 -41.5t9.5 -80t27 -86.5t24.5 -74l-2 -13l15 -30l-2 -11q8 -16 8 -22q0 -19 -37 -25zM231 426q86 -29 207 -29q25 0 37 4l10 -4q19 0 19 19q0 428 -80 923 q-1 6 -4.5 22t-3.5 25q-25 -71 -27 -90l6 -12q-7 -7 -23 -70.5t-44.5 -262t-41 -255t-26.5 -102.5q-29 -102 -29 -156v-12zM567 600l23 -534v-22q0 -24 -6 -30q-16 -14 -35 -14t-31 10t-12 25q6 12 6 24l-6 41v203q0 27 -108 46.5t-160 19.5q-20 0 -36 -74.5t-31 -163.5 t-30 -111q-48 0 -63 25q32 46 61.5 224t47.5 258.5t64.5 349.5t63 344.5t25.5 111.5t23 85q33 118 59 118q32 0 42.5 -14.5t18 -68t15 -136t13.5 -151.5q19 -216 23.5 -284t18.5 -98q-4 -62 -4 -106.5t18 -77.5z" unicode="Â"/>
<glyph glyph-name="Atilde" d="M574 1802l-12 39q6 12 25.5 12t31 -22t11.5 -56.5t-33 -67t-73 -32.5t-77 21.5t-56 41t-52 58.5l-14 6h-37q-3 -12 -21 -25t-18 -25.5t10 -47.5l-22 -31q-13 0 -26 11t-13 24q0 63 32 104t93 41q66 -34 81 -45q15 -30 40 -55t44 -25t25 2l14 -4q5 14 20 23q27 16 27 53z M231 426q86 -29 207 -29q25 0 37 4l10 -4q19 0 19 19q0 428 -80 923q-1 6 -4.5 22t-3.5 25q-25 -71 -27 -90l6 -12q-7 -7 -23 -70.5t-44.5 -262t-41 -255t-26.5 -102.5q-29 -102 -29 -156v-12zM567 600l23 -534v-22q0 -24 -6 -30q-16 -14 -35 -14t-31 10t-12 25q6 12 6 24 l-6 41v203q0 27 -108 46.5t-160 19.5q-20 0 -36 -74.5t-31 -163.5t-30 -111q-48 0 -63 25q32 46 61.5 224t47.5 258.5t64.5 349.5t63 344.5t25.5 111.5t23 85q33 118 59 118q32 0 42.5 -14.5t18 -68t15 -136t13.5 -151.5q19 -216 23.5 -284t18.5 -98q-4 -62 -4 -106.5 t18 -77.5z" unicode="Ã"/>
<glyph glyph-name="Adieresis" d="M228 1708q0 -17 -16.5 -26t-34 -9t-28.5 17t-11 34.5t15.5 34t33.5 16.5q41 0 41 -67zM610.5 1695.5q-12.5 14.5 -12.5 32t15.5 33.5t33.5 16t32 -16.5t14 -32.5q0 -47 -54 -47q-16 0 -28.5 14.5zM231 426q86 -29 207 -29q25 0 37 4l10 -4q19 0 19 19q0 428 -80 923 q-1 6 -4.5 22t-3.5 25q-25 -71 -27 -90l6 -12q-7 -7 -23 -70.5t-44.5 -262t-41 -255t-26.5 -102.5q-29 -102 -29 -156v-12zM567 600l23 -534v-22q0 -24 -6 -30q-16 -14 -35 -14t-31 10t-12 25q6 12 6 24l-6 41v203q0 27 -108 46.5t-160 19.5q-20 0 -36 -74.5t-31 -163.5 t-30 -111q-48 0 -63 25q32 46 61.5 224t47.5 258.5t64.5 349.5t63 344.5t25.5 111.5t23 85q33 118 59 118q32 0 42.5 -14.5t18 -68t15 -136t13.5 -151.5q19 -216 23.5 -284t18.5 -98q-4 -62 -4 -106.5t18 -77.5z" unicode="Ä"/>
<glyph glyph-name="Aring" d="M371.5 1734q-23.5 -25 -23.5 -47t2.5 -37.5t13.5 -31.5t32.5 -16t52 17t30.5 47t-14.5 61.5t-42 31.5t-51 -25zM331 1596.5q-30 33.5 -30 77t37 84t79 40.5t78.5 -39.5t36.5 -88t-36.5 -78t-85.5 -29.5t-79 33.5zM231 426q86 -29 207 -29q25 0 37 4l10 -4q19 0 19 19 q0 428 -80 923q-1 6 -4.5 22t-3.5 25q-25 -71 -27 -90l6 -12q-7 -7 -23 -70.5t-44.5 -262t-41 -255t-26.5 -102.5q-29 -102 -29 -156v-12zM567 600l23 -534v-22q0 -24 -6 -30q-16 -14 -35 -14t-31 10t-12 25q6 12 6 24l-6 41v203q0 27 -108 46.5t-160 19.5q-20 0 -36 -74.5 t-31 -163.5t-30 -111q-48 0 -63 25q32 46 61.5 224t47.5 258.5t64.5 349.5t63 344.5t25.5 111.5t23 85q33 118 59 118q32 0 42.5 -14.5t18 -68t15 -136t13.5 -151.5q19 -216 23.5 -284t18.5 -98q-4 -62 -4 -106.5t18 -77.5z" unicode="Å"/>
<glyph glyph-name="AE" horiz-adv-x="923" unicode="Æ" d="M489 1393q-19 -22 -107 -350t-93 -379q128 4 205 24q0 52 4 214t4 276t-13 215zM799 57q45 0 45 -26q0 -35 -194 -38q-72 -1 -80 -5t-24 -16t-28 -13l-29 29q17 113 17 241l-10 392l-11 14q-8 -2 -64 -6q-142 -10 -147 -29l-102 -391q0 -1 -13 -63q-30 -144 -59 -144 q-8 0 -12 9t-4 16q2 98 108 511t242 855q26 91 48 121t46 30l158 10q64 0 64 -32l-13 -25q-100 0 -202 -12l14 -305l-6 -478l10 -12l162 21l28 -35q0 -35 -118 -35h-82l8 -487l-2 -84q0 -35 18 -35z"/>
<glyph glyph-name="Ccedilla" d="M454 -199l-55 -7q-31 0 -56 41q17 39 17 117v23l59 8q-8 -47 -8 -103q149 -10 149 -206q0 -48 -46.5 -105t-108.5 -57q-29 0 -58.5 14.5t-29.5 38t22 23.5q13 0 33 -10.5t39 -10.5t41 29t22 55l-6 29q0 6 9 11.5t10 6.5q0 53 -8 71.5t-25 31.5zM170 1008l-18 -148 q0 -121 27 -404t55 -326q54 -83 161.5 -83t157.5 59q19 0 47 7l10 -11q0 -98 -156 -128q-37 -7 -83.5 -7t-109.5 46t-89 102t-51 348t-25 514t13 262q-7 35 -7 66q0 123 88 191.5t216 68.5q35 0 76.5 -22t41.5 -54q0 -23 -32 -23q-9 0 -25 12.5t-26.5 12.5t-22.5 -4 q-24 8 -49 8t-60.5 -10.5t-59 -27t-40 -44.5t-25.5 -53.5t-14 -65.5q-6 -57 -6 -141z" unicode="Ç"/>
<glyph glyph-name="Egrave" horiz-adv-x="497" unicode="È" d="M65 1747q-20 -4 -33 -4q-70 0 -70 41q0 36 13 45q74 0 92 -23q2 -1 24.5 -8.5t38.5 -13.5t42.5 -16.5t46 -19.5t38.5 -19q39 -22 39 -39q0 -7 -8.5 -12t-14 -5t-102.5 34.5t-106 39.5zM199 61l123 7q96 0 96 -33q-17 -30 -61 -38.5t-85 -8.5h-48q-92 0 -106 14.5 t-14 30.5l19 76v4q-8 41 -8 90l10 209l-12 438l10 407q0 37 -13 109.5t-14 106.5l37 57l143 18l7 -6q48 0 55.5 -12.5t7.5 -26.5q0 -39 -74 -39l-55 4q-45 0 -45 -24l16 -348l-10 -256l-4 -4l12 -7l113 21q11 0 24 -11.5t13 -23.5q0 -41 -31 -41l-47 2q-78 0 -78 -39 l15 -172l-7 -12v-416q11 -13 11 -57v-19z"/>
<glyph glyph-name="Eacute" horiz-adv-x="497" unicode="É" d="M200 1674q-37 0 -37 30q0 12 121.5 105.5t132.5 103.5q45 0 45 -32q0 -1 -6 -31q-103 -46 -256 -176zM199 61l123 7q96 0 96 -33q-17 -30 -61 -38.5t-85 -8.5h-48q-92 0 -106 14.5t-14 30.5l19 76v4q-8 41 -8 90l10 209l-12 438l10 407q0 37 -13 109.5t-14 106.5l37 57 l143 18l7 -6q48 0 55.5 -12.5t7.5 -26.5q0 -39 -74 -39l-55 4q-45 0 -45 -24l16 -348l-10 -256l-4 -4l12 -7l113 21q11 0 24 -11.5t13 -23.5q0 -41 -31 -41l-47 2q-78 0 -78 -39l15 -172l-7 -12v-416q11 -13 11 -57v-19z"/>
<glyph glyph-name="Ecircumflex" horiz-adv-x="497" unicode="Ê" d="M303 1673l-27 17q-10 124 -59 307q-26 -66 -55 -156t-31 -110l-35 -47l-37 26q2 45 71.5 195.5t99.5 150.5t30 -41.5t9.5 -80t27 -86.5t24.5 -74l-2 -13l15 -30l-2 -11q8 -16 8 -22q0 -19 -37 -25zM199 61l123 7q96 0 96 -33q-17 -30 -61 -38.5t-85 -8.5h-48 q-92 0 -106 14.5t-14 30.5l19 76v4q-8 41 -8 90l10 209l-12 438l10 407q0 37 -13 109.5t-14 106.5l37 57l143 18l7 -6q48 0 55.5 -12.5t7.5 -26.5q0 -39 -74 -39l-55 4q-45 0 -45 -24l16 -348l-10 -256l-4 -4l12 -7l113 21q11 0 24 -11.5t13 -23.5q0 -41 -31 -41l-47 2 q-78 0 -78 -39l15 -172l-7 -12v-416q11 -13 11 -57v-19z"/>
<glyph glyph-name="Edieresis" horiz-adv-x="497" unicode="Ë" d="M11 1708q0 -17 -16.5 -26t-34 -9t-28.5 17t-11 34.5t15.5 34t33.5 16.5q41 0 41 -67zM393.5 1695.5q-12.5 14.5 -12.5 32t15.5 33.5t33.5 16t32 -16.5t14 -32.5q0 -47 -54 -47q-16 0 -28.5 14.5zM199 61l123 7q96 0 96 -33q-17 -30 -61 -38.5t-85 -8.5h-48 q-92 0 -106 14.5t-14 30.5l19 76v4q-8 41 -8 90l10 209l-12 438l10 407q0 37 -13 109.5t-14 106.5l37 57l143 18l7 -6q48 0 55.5 -12.5t7.5 -26.5q0 -39 -74 -39l-55 4q-45 0 -45 -24l16 -348l-10 -256l-4 -4l12 -7l113 21q11 0 24 -11.5t13 -23.5q0 -41 -31 -41l-47 2 q-78 0 -78 -39l15 -172l-7 -12v-416q11 -13 11 -57v-19z"/>
<glyph glyph-name="Igrave" horiz-adv-x="477" unicode="Ì" d="M94 1747q-20 -4 -33 -4q-70 0 -70 41q0 36 13 45q74 0 92 -23q2 -1 24.5 -8.5t38.5 -13.5t42.5 -16.5t46 -19.5t38.5 -19q39 -22 39 -39q0 -7 -8.5 -12t-14 -5t-102.5 34.5t-106 39.5zM360 8l-65 10q-23 0 -47 -24q-46 0 -58 16h-5q-94 0 -109 35q0 23 47 23l45 -2 q41 0 42 59v16q0 54 -6 128q-6 85 -7.5 169t-11.5 327t-13 349l2 240q0 99 -6 119l-70 -15q-22 0 -22 28.5t90 47t122 18.5q54 0 54 -33.5t-25 -33.5l-49 2q-35 0 -42 -33q-7 -27 -7 -159t25.5 -523t25.5 -588l-2 -106l74 6q53 0 53 -51z"/>
<glyph glyph-name="Iacute" horiz-adv-x="477" unicode="Í" d="M176 1674q-37 0 -37 30q0 12 121.5 105.5t132.5 103.5q45 0 45 -32q0 -1 -6 -31q-103 -46 -256 -176zM360 8l-65 10q-23 0 -47 -24q-46 0 -58 16h-5q-94 0 -109 35q0 23 47 23l45 -2q41 0 42 59v16q0 54 -6 128q-6 85 -7.5 169t-11.5 327t-13 349l2 240q0 99 -6 119 l-70 -15q-22 0 -22 28.5t90 47t122 18.5q54 0 54 -33.5t-25 -33.5l-49 2q-35 0 -42 -33q-7 -27 -7 -159t25.5 -523t25.5 -588l-2 -106l74 6q53 0 53 -51z"/>
<glyph glyph-name="Icircumflex" horiz-adv-x="477" unicode="Î" d="M278 1673l-27 17q-10 124 -59 307q-26 -66 -55 -156t-31 -110l-35 -47l-37 26q2 45 71.5 195.5t99.5 150.5t30 -41.5t9.5 -80t27 -86.5t24.5 -74l-2 -13l15 -30l-2 -11q8 -16 8 -22q0 -19 -37 -25zM360 8l-65 10q-23 0 -47 -24q-46 0 -58 16h-5q-94 0 -109 35q0 23 47 23 l45 -2q41 0 42 59v16q0 54 -6 128q-6 85 -7.5 169t-11.5 327t-13 349l2 240q0 99 -6 119l-70 -15q-22 0 -22 28.5t90 47t122 18.5q54 0 54 -33.5t-25 -33.5l-49 2q-35 0 -42 -33q-7 -27 -7 -159t25.5 -523t25.5 -588l-2 -106l74 6q53 0 53 -51z"/>
<glyph glyph-name="Idieresis" horiz-adv-x="477" unicode="Ï" d="M-13 1708q0 -17 -16.5 -26t-34 -9t-28.5 17t-11 34.5t15.5 34t33.5 16.5q41 0 41 -67zM369.5 1695.5q-12.5 14.5 -12.5 32t15.5 33.5t33.5 16t32 -16.5t14 -32.5q0 -47 -54 -47q-16 0 -28.5 14.5zM360 8l-65 10q-23 0 -47 -24q-46 0 -58 16h-5q-94 0 -109 35q0 23 47 23 l45 -2q41 0 42 59v16q0 54 -6 128q-6 85 -7.5 169t-11.5 327t-13 349l2 240q0 99 -6 119l-70 -15q-22 0 -22 28.5t90 47t122 18.5q54 0 54 -33.5t-25 -33.5l-49 2q-35 0 -42 -33q-7 -27 -7 -159t25.5 -523t25.5 -588l-2 -106l74 6q53 0 53 -51z"/>
<glyph glyph-name="Eth" horiz-adv-x="839" unicode="Ð" d="M301 821l141 23q17 0 29 -16t14 -33l-20 -25q-104 0 -168 -14q-1 -32 5 -162t9 -143l-2 -2q1 -73 11 -221t10 -222q27 6 39 18t21 22t13 13q103 101 179 262t77 281q0 120 -1 178q-5 168 -42 307q-32 161 -124 285t-236 166l-4 -4q0 -129 14 -407t35 -306zM199 1196 l-17 367q0 7 12 25t21 18q171 0 348 -246q42 -59 74 -119v-4q96 -271 96 -588q1 -133 -49 -281t-146 -276t-216 -180q-9 4 -24 8q-25 7 -36 31h-2q0 271 -18 651q-10 126 -17 152l-125 -13q-16 1 -22 9t-6 26t36 28t72 10l37 -1l8 4l2 10q0 61 -14 184t-14 185z"/>
<glyph glyph-name="Ntilde" horiz-adv-x="772" unicode="Ñ" d="M515 1827l-12 39q6 12 25.5 12t31 -22t11.5 -56.5t-33 -67t-73 -32.5t-77 21.5t-56 41t-52 58.5l-14 6h-37q-3 -12 -21 -25t-18 -25.5t10 -47.5l-22 -31q-13 0 -26 11t-13 24q0 63 32 104t93 41q66 -34 81 -45q15 -30 40 -55t44 -25t25 2l14 -4q5 14 20 23q27 16 27 53z M621 111l6 -74q0 -60 -52 -60q-36 0 -49 77q-7 36 -8 40q-200 631 -252 922q-2 9 -3 28q-2 41 -19 58l4 10q-13 76 -19.5 105.5t-14.5 66.5q-14 65 -36 117q-6 -42 -6 -64t4 -34q-14 -48 -14 -142v-561q0 -98 14 -292t14 -292l-14 -16h-47l-6 16q4 16 4 82l-23 713v268 l15 387l-2 43q0 26 13.5 34.5t35 8.5t37.5 -12.5t16 -39.5t9 -59t26 -71.5t26.5 -72t17.5 -104t19 -126.5t36 -148t57.5 -206t41.5 -148.5t24 -90.5q32 -114 34 -161q14 -21 21.5 -81t33.5 -82q13 29 13 98l8 713l-6 317l6 78q0 22 -6 26l6 17q0 126 -8 168q8 28 51 28 q33 0 33 -67q-13 -26 -13 -68l2 -69q0 -44 -8 -62l-6 -647q0 -19 4 -55l-4 -9v-258l4 -77q0 -122 -20 -168v-4z"/>
<glyph glyph-name="Ograve" d="M97 1747q-20 -4 -33 -4q-70 0 -70 41q0 36 13 45q74 0 92 -23q2 -1 24.5 -8.5t38.5 -13.5t42.5 -16.5t46 -19.5t38.5 -19q39 -22 39 -39q0 -7 -8.5 -12t-14 -5t-102.5 34.5t-106 39.5zM303 1518q-151 0 -151 -607v-80q0 -142 21.5 -305.5t45 -265.5t66 -174t94.5 -72 q70 0 102 142.5t38 253.5q7 152 7 198v49q0 38 -0.5 64.5t-1.5 87t-4 107.5t-8 114t-14 119.5t-20.5 112t-28 102.5t-37.5 80q-43 74 -109 74zM586 618l-19 -264l4 -8q-16 -69 -16 -124t-22 -113.5t-65.5 -105t-93.5 -46.5t-93 38t-71.5 97.5t-50 141t-33.5 160t-20 162.5 q-12 140 -12 242.5t9 233.5t10 169t2 67t5 69.5t10.5 71t19.5 62.5t32 53q42 47 117.5 47t124.5 -41q7 -11 36.5 -49t44 -72.5t32.5 -169.5q49 -350 49 -621z" unicode="Ò"/>
<glyph glyph-name="Oacute" d="M304 1674q-37 0 -37 30q0 12 121.5 105.5t132.5 103.5q45 0 45 -32q0 -1 -6 -31q-103 -46 -256 -176zM303 1518q-151 0 -151 -607v-80q0 -142 21.5 -305.5t45 -265.5t66 -174t94.5 -72q70 0 102 142.5t38 253.5q7 152 7 198v49q0 38 -0.5 64.5t-1.5 87t-4 107.5t-8 114 t-14 119.5t-20.5 112t-28 102.5t-37.5 80q-43 74 -109 74zM586 618l-19 -264l4 -8q-16 -69 -16 -124t-22 -113.5t-65.5 -105t-93.5 -46.5t-93 38t-71.5 97.5t-50 141t-33.5 160t-20 162.5q-12 140 -12 242.5t9 233.5t10 169t2 67t5 69.5t10.5 71t19.5 62.5t32 53 q42 47 117.5 47t124.5 -41q7 -11 36.5 -49t44 -72.5t32.5 -169.5q49 -350 49 -621z" unicode="Ó"/>
<glyph glyph-name="Ocircumflex" d="M406 1673l-27 17q-10 124 -59 307q-26 -66 -55 -156t-31 -110l-35 -47l-37 26q2 45 71.5 195.5t99.5 150.5t30 -41.5t9.5 -80t27 -86.5t24.5 -74l-2 -13l15 -30l-2 -11q8 -16 8 -22q0 -19 -37 -25zM303 1518q-151 0 -151 -607v-80q0 -142 21.5 -305.5t45 -265.5t66 -174 t94.5 -72q70 0 102 142.5t38 253.5q7 152 7 198v49q0 38 -0.5 64.5t-1.5 87t-4 107.5t-8 114t-14 119.5t-20.5 112t-28 102.5t-37.5 80q-43 74 -109 74zM586 618l-19 -264l4 -8q-16 -69 -16 -124t-22 -113.5t-65.5 -105t-93.5 -46.5t-93 38t-71.5 97.5t-50 141t-33.5 160 t-20 162.5q-12 140 -12 242.5t9 233.5t10 169t2 67t5 69.5t10.5 71t19.5 62.5t32 53q42 47 117.5 47t124.5 -41q7 -11 36.5 -49t44 -72.5t32.5 -169.5q49 -350 49 -621z" unicode="Ô"/>
<glyph glyph-name="Otilde" d="M462 1802l-12 39q6 12 25.5 12t31 -22t11.5 -56.5t-33 -67t-73 -32.5t-77 21.5t-56 41t-52 58.5l-14 6h-37q-3 -12 -21 -25t-18 -25.5t10 -47.5l-22 -31q-13 0 -26 11t-13 24q0 63 32 104t93 41q66 -34 81 -45q15 -30 40 -55t44 -25t25 2l14 -4q5 14 20 23q27 16 27 53z M303 1518q-151 0 -151 -607v-80q0 -142 21.5 -305.5t45 -265.5t66 -174t94.5 -72q70 0 102 142.5t38 253.5q7 152 7 198v49q0 38 -0.5 64.5t-1.5 87t-4 107.5t-8 114t-14 119.5t-20.5 112t-28 102.5t-37.5 80q-43 74 -109 74zM586 618l-19 -264l4 -8q-16 -69 -16 -124 t-22 -113.5t-65.5 -105t-93.5 -46.5t-93 38t-71.5 97.5t-50 141t-33.5 160t-20 162.5q-12 140 -12 242.5t9 233.5t10 169t2 67t5 69.5t10.5 71t19.5 62.5t32 53q42 47 117.5 47t124.5 -41q7 -11 36.5 -49t44 -72.5t32.5 -169.5q49 -350 49 -621z" unicode="Õ"/>
<glyph glyph-name="Odieresis" d="M115 1708q0 -17 -16.5 -26t-34 -9t-28.5 17t-11 34.5t15.5 34t33.5 16.5q41 0 41 -67zM497.5 1695.5q-12.5 14.5 -12.5 32t15.5 33.5t33.5 16t32 -16.5t14 -32.5q0 -47 -54 -47q-16 0 -28.5 14.5zM303 1518q-151 0 -151 -607v-80q0 -142 21.5 -305.5t45 -265.5t66 -174 t94.5 -72q70 0 102 142.5t38 253.5q7 152 7 198v49q0 38 -0.5 64.5t-1.5 87t-4 107.5t-8 114t-14 119.5t-20.5 112t-28 102.5t-37.5 80q-43 74 -109 74zM586 618l-19 -264l4 -8q-16 -69 -16 -124t-22 -113.5t-65.5 -105t-93.5 -46.5t-93 38t-71.5 97.5t-50 141t-33.5 160 t-20 162.5q-12 140 -12 242.5t9 233.5t10 169t2 67t5 69.5t10.5 71t19.5 62.5t32 53q42 47 117.5 47t124.5 -41q7 -11 36.5 -49t44 -72.5t32.5 -169.5q49 -350 49 -621z" unicode="Ö"/>
<glyph glyph-name="multiply" horiz-adv-x="727" unicode="×" d="M516 430l-45 43q-13 12 -40 43q-59 68 -77 68t-39 -20q-20 -20 -35 -44q-42 -63 -79 -63q-11 0 -26 10q-15 9 -15 19t16 26t43 39q25 21 35 31t26 32t17 33q-17 17 -63 55q-107 90 -107 115q-1 9 13 25t28 16t25 -10l10 -21q127 -127 150 -127t55 36l64 72t50 36t28 -10 t11 -25q-1 -15 -37 -49t-72 -67t-36 -51t26 -43t57 -45q83 -54 83 -83q0 -17 -14 -32t-30 -15t-22 6z"/>
<glyph glyph-name="Oslash" horiz-adv-x="602" unicode="Ø" d="M297 1497q-20 16 -37 16t-41 -12l-12 4q-64 -39 -64 -653q0 -104 19 -147q0 -71 12 -215t12 -216q14 19 36 234t34 340q22 210 31 307t15 143q15 104 15 144t-20 55zM302 817q-34 -397 -60 -538q-27 -141 -27 -176q0 -80 90 -80q133 0 133 376q0 845 -73 990 q-29 -175 -63 -572zM485 831l7 -387q0 -142 -8 -192t-18 -92q-8 -42 -24 -71t-36 -55q-42 -54 -115 -54t-103 40h-2q-14 -88 -53 -284l-31 24q1 35 23 142t37 209q0 15 -8 39t-14 50q-4 26 -10 74q-6 47 -10 86q-4 40 -7 94t-5 86t-4 94t-2 87t-2 94v87v179q0 488 150 488 q10 1 31 -11t28 -12l8 4l11 -10q13 39 53 258h37l-2 -59l-43 -248q0 -25 30 -59l-2 -5q4 -18 16 -38q38 -57 38 -160l-4 -2q0 -61 15 -188t15 -189v-12z"/>
<glyph glyph-name="Ugrave" horiz-adv-x="743" unicode="Ù" d="M129 1747q-20 -4 -33 -4q-70 0 -70 41q0 36 13 45q74 0 92 -23q2 -1 24.5 -8.5t38.5 -13.5t42.5 -16.5t46 -19.5t38.5 -19q39 -22 39 -39q0 -7 -8.5 -12t-14 -5t-102.5 34.5t-106 39.5zM627 426l2 -129q0 -173 -45 -255q-19 -34 -55 -57.5t-93 -23.5t-105 30.5t-74 76.5 t-45.5 107t-27.5 115q-23 142 -45 183q0 163 -20.5 487.5t-20.5 487.5l-14 43q0 14 10.5 27.5t24.5 13.5q51 0 51 -150l18 -692q8 -10 10 -49q10 -142 19 -182q-4 -24 -4 -52t19.5 -94t51 -130t78.5 -110t84 -46t55 8t28 17.5t16.5 31.5t8.5 33.5t4 41t1.5 36t-0.5 18.5 l6 68v233l-14 123l-12 367v26l-9 12q9 58 9 117l-19 348q0 16 14.5 24.5t30.5 8.5l35 -33l-6 -16l6 -16l-14 -123l20 -369l10 -356l7 -2q-2 -14 -2 -43l6 -144l6 -6z"/>
<glyph glyph-name="Uacute" horiz-adv-x="743" unicode="Ú" d="M336 1674q-37 0 -37 30q0 12 121.5 105.5t132.5 103.5q45 0 45 -32q0 -1 -6 -31q-103 -46 -256 -176zM627 426l2 -129q0 -173 -45 -255q-19 -34 -55 -57.5t-93 -23.5t-105 30.5t-74 76.5t-45.5 107t-27.5 115q-23 142 -45 183q0 163 -20.5 487.5t-20.5 487.5l-14 43 q0 14 10.5 27.5t24.5 13.5q51 0 51 -150l18 -692q8 -10 10 -49q10 -142 19 -182q-4 -24 -4 -52t19.5 -94t51 -130t78.5 -110t84 -46t55 8t28 17.5t16.5 31.5t8.5 33.5t4 41t1.5 36t-0.5 18.5l6 68v233l-14 123l-12 367v26l-9 12q9 58 9 117l-19 348q0 16 14.5 24.5t30.5 8.5 l35 -33l-6 -16l6 -16l-14 -123l20 -369l10 -356l7 -2q-2 -14 -2 -43l6 -144l6 -6z"/>
<glyph glyph-name="Ucircumflex" horiz-adv-x="743" unicode="Û" d="M438 1673l-27 17q-10 124 -59 307q-26 -66 -55 -156t-31 -110l-35 -47l-37 26q2 45 71.5 195.5t99.5 150.5t30 -41.5t9.5 -80t27 -86.5t24.5 -74l-2 -13l15 -30l-2 -11q8 -16 8 -22q0 -19 -37 -25zM627 426l2 -129q0 -173 -45 -255q-19 -34 -55 -57.5t-93 -23.5 t-105 30.5t-74 76.5t-45.5 107t-27.5 115q-23 142 -45 183q0 163 -20.5 487.5t-20.5 487.5l-14 43q0 14 10.5 27.5t24.5 13.5q51 0 51 -150l18 -692q8 -10 10 -49q10 -142 19 -182q-4 -24 -4 -52t19.5 -94t51 -130t78.5 -110t84 -46t55 8t28 17.5t16.5 31.5t8.5 33.5t4 41 t1.5 36t-0.5 18.5l6 68v233l-14 123l-12 367v26l-9 12q9 58 9 117l-19 348q0 16 14.5 24.5t30.5 8.5l35 -33l-6 -16l6 -16l-14 -123l20 -369l10 -356l7 -2q-2 -14 -2 -43l6 -144l6 -6z"/>
<glyph glyph-name="Udieresis" horiz-adv-x="743" unicode="Ü" d="M147 1708q0 -17 -16.5 -26t-34 -9t-28.5 17t-11 34.5t15.5 34t33.5 16.5q41 0 41 -67zM529.5 1695.5q-12.5 14.5 -12.5 32t15.5 33.5t33.5 16t32 -16.5t14 -32.5q0 -47 -54 -47q-16 0 -28.5 14.5zM627 426l2 -129q0 -173 -45 -255q-19 -34 -55 -57.5t-93 -23.5t-105 30.5 t-74 76.5t-45.5 107t-27.5 115q-23 142 -45 183q0 163 -20.5 487.5t-20.5 487.5l-14 43q0 14 10.5 27.5t24.5 13.5q51 0 51 -150l18 -692q8 -10 10 -49q10 -142 19 -182q-4 -24 -4 -52t19.5 -94t51 -130t78.5 -110t84 -46t55 8t28 17.5t16.5 31.5t8.5 33.5t4 41t1.5 36 t-0.5 18.5l6 68v233l-14 123l-12 367v26l-9 12q9 58 9 117l-19 348q0 16 14.5 24.5t30.5 8.5l35 -33l-6 -16l6 -16l-14 -123l20 -369l10 -356l7 -2q-2 -14 -2 -43l6 -144l6 -6z"/>
<glyph glyph-name="Yacute" horiz-adv-x="505" unicode="Ý" d="M241 1674q-37 0 -37 30q0 12 121.5 105.5t132.5 103.5q45 0 45 -32q0 -1 -6 -31q-103 -46 -256 -176zM289 -25q-29 0 -29 50l10 395l-14 166q0 33 -12.5 96t-12.5 87t-5.5 53t-15.5 70t-14.5 63.5t-23.5 122.5q-41 209 -69.5 304.5t-28.5 121.5q0 42 41 42l24 -16 q5 -83 53.5 -323t75.5 -277q32 94 44 235.5t20 214.5q18 160 57 160q31 0 31 -22q0 -16 -8 -44.5t-11.5 -50.5t-23 -131t-28.5 -164q-27 -163 -27 -299l6 -67l-13 -31v-16l15 -246q0 -277 -4 -414l6 -6l2 -14q0 -23 -11.5 -41.5t-33.5 -18.5z"/>
<glyph glyph-name="Thorn" horiz-adv-x="540" unicode="Þ" d="M162 1317v-53q2 -112 14 -330t14 -322q22 2 32 12l20 20q10 11 14 15q133 133 133 334q0 163 -69 229q-29 28 -73 60t-48 35h-37zM190 537l11 -486q-1 -31 -9 -47t-34 -16t-27 71l2 258l-4 252q0 118 -8 299q-7 181 -9 218q-2 36 -9 132t-8 127t-1 50l2 135q0 12 15 16 l34 -6q3 -28 5 -81t4 -81v-2q166 -3 246 -171q46 -95 46 -201t-43 -230q-53 -153 -137 -192q-26 -11 -37 -22q-20 -18 -39 -23z"/>
<glyph glyph-name="germandbls" horiz-adv-x="616" unicode="ß" d="M180 809l10 -760q0 -61 -38 -61t-39 28l10 519l-14 731q0 270 155 270q80 0 122 -90t42 -232q0 -235 -131 -360q97 -49 147 -149t50 -232v-47q0 -235 -81 -326q-38 -42 -98 -73q-12 -4 -23 -4q-10 -1 -24 7t-14 24t25 34q35 17 79 50t50 59q26 50 27 92t1 93t-8 112 t-27 126q-42 145 -145 191q-13 6 -23 20q-10 13 -10 23q-1 10 1 14l4 8t6 6l6 3q8 4 14 4q43 13 82 117t39 206q0 100 -32 177t-77 77q-94 0 -94 -211l8 -368v-78z"/>
<glyph glyph-name="agrave" horiz-adv-x="667" unicode="à" d="M181 1552q-20 -4 -33 -4q-70 0 -70 41q0 36 13 45q74 0 92 -23q2 -1 24.5 -8.5t38.5 -13.5t42.5 -16.5t46 -19.5t38.5 -19q39 -22 39 -39q0 -7 -8.5 -12t-14 -5t-102.5 34.5t-106 39.5zM223 406q0 -21 49 -35q75 -21 166 -21h21q-13 40 -13 92v47q0 127 -31.5 370 t-33.5 362q-107 -529 -132.5 -653.5t-25.5 -161.5zM367 305l-54 -2q-29 12 -64 12t-38 -2t-4 -7t-2 -7l-4 -41q-4 -52 -19 -125q-28 -143 -59 -143q-13 0 -27 11t-14 24q26 77 54 233t35 194.5t26 155.5t25 154t32.5 160t32 161t12.5 103q17 160 27 178l28 -2q25 0 37 12 q13 0 25 -8.5t12 -22.5q0 -98 25 -379t39.5 -363.5t33.5 -162t19 -121.5l-10 -28q0 -46 17 -135.5t17 -126t-16 -45.5q-42 0 -51.5 12t-9.5 38.5t-3.5 65t-7 61.5t-12 72.5t-10.5 63.5q-39 10 -92 10z"/>
<glyph glyph-name="aacute" horiz-adv-x="667" unicode="á" d="M271 1479q-37 0 -37 30q0 12 121.5 105.5t132.5 103.5q45 0 45 -32q0 -1 -6 -31q-103 -46 -256 -176zM223 406q0 -21 49 -35q75 -21 166 -21h21q-13 40 -13 92v47q0 127 -31.5 370t-33.5 362q-107 -529 -132.5 -653.5t-25.5 -161.5zM367 305l-54 -2q-29 12 -64 12t-38 -2 t-4 -7t-2 -7l-4 -41q-4 -52 -19 -125q-28 -143 -59 -143q-13 0 -27 11t-14 24q26 77 54 233t35 194.5t26 155.5t25 154t32.5 160t32 161t12.5 103q17 160 27 178l28 -2q25 0 37 12q13 0 25 -8.5t12 -22.5q0 -98 25 -379t39.5 -363.5t33.5 -162t19 -121.5l-10 -28 q0 -46 17 -135.5t17 -126t-16 -45.5q-42 0 -51.5 12t-9.5 38.5t-3.5 65t-7 61.5t-12 72.5t-10.5 63.5q-39 10 -92 10z"/>
<glyph glyph-name="acircumflex" horiz-adv-x="667" unicode="â" d="M489 1478l-27 17q-10 124 -59 307q-26 -66 -55 -156t-31 -110l-35 -47l-37 26q2 45 71.5 195.5t99.5 150.5t30 -41.5t9.5 -80t27 -86.5t24.5 -74l-2 -13l15 -30l-2 -11q8 -16 8 -22q0 -19 -37 -25zM223 406q0 -21 49 -35q75 -21 166 -21h21q-13 40 -13 92v47 q0 127 -31.5 370t-33.5 362q-107 -529 -132.5 -653.5t-25.5 -161.5zM367 305l-54 -2q-29 12 -64 12t-38 -2t-4 -7t-2 -7l-4 -41q-4 -52 -19 -125q-28 -143 -59 -143q-13 0 -27 11t-14 24q26 77 54 233t35 194.5t26 155.5t25 154t32.5 160t32 161t12.5 103q17 160 27 178 l28 -2q25 0 37 12q13 0 25 -8.5t12 -22.5q0 -98 25 -379t39.5 -363.5t33.5 -162t19 -121.5l-10 -28q0 -46 17 -135.5t17 -126t-16 -45.5q-42 0 -51.5 12t-9.5 38.5t-3.5 65t-7 61.5t-12 72.5t-10.5 63.5q-39 10 -92 10z"/>
<glyph glyph-name="atilde" horiz-adv-x="667" unicode="ã" d="M545 1608l-12 39q6 12 25.5 12t31 -22t11.5 -56.5t-33 -67t-73 -32.5t-77 21.5t-56 41t-52 58.5l-14 6h-37q-3 -12 -21 -25t-18 -25.5t10 -47.5l-22 -31q-13 0 -26 11t-13 24q0 63 32 104t93 41q66 -34 81 -45q15 -30 40 -55t44 -25t25 2l14 -4q5 14 20 23q27 16 27 53z M223 406q0 -21 49 -35q75 -21 166 -21h21q-13 40 -13 92v47q0 127 -31.5 370t-33.5 362q-107 -529 -132.5 -653.5t-25.5 -161.5zM367 305l-54 -2q-29 12 -64 12t-38 -2t-4 -7t-2 -7l-4 -41q-4 -52 -19 -125q-28 -143 -59 -143q-13 0 -27 11t-14 24q26 77 54 233t35 194.5 t26 155.5t25 154t32.5 160t32 161t12.5 103q17 160 27 178l28 -2q25 0 37 12q13 0 25 -8.5t12 -22.5q0 -98 25 -379t39.5 -363.5t33.5 -162t19 -121.5l-10 -28q0 -46 17 -135.5t17 -126t-16 -45.5q-42 0 -51.5 12t-9.5 38.5t-3.5 65t-7 61.5t-12 72.5t-10.5 63.5 q-39 10 -92 10z"/>
<glyph glyph-name="adieresis" horiz-adv-x="667" unicode="ä" d="M198 1514q0 -17 -16.5 -26t-34 -9t-28.5 17t-11 34.5t15.5 34t33.5 16.5q41 0 41 -67zM580.5 1501.5q-12.5 14.5 -12.5 32t15.5 33.5t33.5 16t32 -16.5t14 -32.5q0 -47 -54 -47q-16 0 -28.5 14.5zM223 406q0 -21 49 -35q75 -21 166 -21h21q-13 40 -13 92v47 q0 127 -31.5 370t-33.5 362q-107 -529 -132.5 -653.5t-25.5 -161.5zM367 305l-54 -2q-29 12 -64 12t-38 -2t-4 -7t-2 -7l-4 -41q-4 -52 -19 -125q-28 -143 -59 -143q-13 0 -27 11t-14 24q26 77 54 233t35 194.5t26 155.5t25 154t32.5 160t32 161t12.5 103q17 160 27 178 l28 -2q25 0 37 12q13 0 25 -8.5t12 -22.5q0 -98 25 -379t39.5 -363.5t33.5 -162t19 -121.5l-10 -28q0 -46 17 -135.5t17 -126t-16 -45.5q-42 0 -51.5 12t-9.5 38.5t-3.5 65t-7 61.5t-12 72.5t-10.5 63.5q-39 10 -92 10z"/>
<glyph glyph-name="aring" horiz-adv-x="667" unicode="å" d="M337.5 1650q-23.5 -25 -23.5 -47t2.5 -37.5t13.5 -31.5t32.5 -16t52 17t30.5 47t-14.5 61.5t-42 31.5t-51 -25zM297 1512.5q-30 33.5 -30 77t37 84t79 40.5t78.5 -39.5t36.5 -88t-36.5 -78t-85.5 -29.5t-79 33.5zM223 406q0 -21 49 -35q75 -21 166 -21h21q-13 40 -13 92 v47q0 127 -31.5 370t-33.5 362q-107 -529 -132.5 -653.5t-25.5 -161.5zM367 305l-54 -2q-29 12 -64 12t-38 -2t-4 -7t-2 -7l-4 -41q-4 -52 -19 -125q-28 -143 -59 -143q-13 0 -27 11t-14 24q26 77 54 233t35 194.5t26 155.5t25 154t32.5 160t32 161t12.5 103q17 160 27 178 l28 -2q25 0 37 12q13 0 25 -8.5t12 -22.5q0 -98 25 -379t39.5 -363.5t33.5 -162t19 -121.5l-10 -28q0 -46 17 -135.5t17 -126t-16 -45.5q-42 0 -51.5 12t-9.5 38.5t-3.5 65t-7 61.5t-12 72.5t-10.5 63.5q-39 10 -92 10z"/>
<glyph glyph-name="ae" horiz-adv-x="923" unicode="æ" d="M494 948l2 137v78q0 49 -2 74q-18 -19 -109 -287t-96 -307q90 0 205 25v280zM549 -12l-31 -2l-29 28q17 96 17 215l-10 371l-11 14q-8 -2 -63 -6q-143 -8 -148 -28l-102 -371q0 -1 -13 -63q-30 -144 -59 -144q-8 0 -12 9t-4 16q2 98 82 405q110 350 268 764l4 12l2 9 q37 131 88 131l158 2q64 0 64 -33l-13 -25h-102q-67 0 -100 -4l6 -313l2 -293l10 -12q55 20 162 20l28 -35q0 -34 -145 -34h-55l8 -467l-2 -84q0 -35 18 -35l232 22q45 0 45 -26q0 -35 -194 -38q-73 -1 -85 -7q-6 2 -16 2z"/>
<glyph glyph-name="ccedilla" horiz-adv-x="550" unicode="ç" d="M390 -199l-55 -7q-31 0 -56 41q17 39 17 117v23l59 8q-8 -47 -8 -103q149 -10 149 -206q0 -48 -46.5 -105t-108.5 -57q-29 0 -58.5 14.5t-29.5 38t22 23.5q13 0 33 -10.5t39 -10.5t41 29t22 55l-6 29q0 6 9 11.5t10 6.5q0 53 -8 71.5t-25 31.5zM174 827l-8 -413 q0 -173 33 -248q38 -88 97 -114q38 -17 77.5 -17t60.5 18q31 0 31 -22q0 -16 -27.5 -35.5t-50.5 -28.5h-68q-13 7 -48 18t-64.5 32.5t-55.5 71t-37 115.5q-18 108 -18 242v234q0 273 20 374q40 205 109 259q18 14 55.5 28.5t51.5 22.5h82q2 0 5.5 -1t5.5 -1.5t5.5 -1.5 t5 -1.5t4.5 -2t4 -2.5q9 -9 9 -21l-27 -30h-86q-42 0 -73 -39.5t-47.5 -93.5t-26.5 -125q-15 -107 -15 -207z"/>
<glyph glyph-name="egrave" horiz-adv-x="491" unicode="è" d="M14 1552q-20 -4 -33 -4q-70 0 -70 41q0 36 13 45q74 0 92 -23q2 -1 24.5 -8.5t38.5 -13.5t42.5 -16.5t46 -19.5t38.5 -19q39 -22 39 -39q0 -7 -8.5 -12t-14 -5t-102.5 34.5t-106 39.5zM109 16l2 52l-7 8q15 41 15 84l-10 270l14 617l-8 245q0 58 59 58q23 0 33 -13 q7 -2 59 -8q126 -14 129 -51q0 -16 -39 -39q-113 37 -166 39l-10 -12q2 -29 2 -88l-8 -318q0 -57 29 -57l69 4q78 0 80 -37q0 -21 -10.5 -37t-37.5 -16t-40 16l-67 10h-9l-10 -10v-6q4 -53 4 -162l-4 -291q0 -204 28 -226q18 -15 66 -15l76 4q60 0 60 -27q0 -37 -89 -37 h-169q-38 0 -41 43z"/>
<glyph glyph-name="eacute" horiz-adv-x="491" unicode="é" d="M220 1479q-37 0 -37 30q0 12 121.5 105.5t132.5 103.5q45 0 45 -32q0 -1 -6 -31q-103 -46 -256 -176zM109 16l2 52l-7 8q15 41 15 84l-10 270l14 617l-8 245q0 58 59 58q23 0 33 -13q7 -2 59 -8q126 -14 129 -51q0 -16 -39 -39q-113 37 -166 39l-10 -12q2 -29 2 -88 l-8 -318q0 -57 29 -57l69 4q78 0 80 -37q0 -21 -10.5 -37t-37.5 -16t-40 16l-67 10h-9l-10 -10v-6q4 -53 4 -162l-4 -291q0 -204 28 -226q18 -15 66 -15l76 4q60 0 60 -27q0 -37 -89 -37h-169q-38 0 -41 43z"/>
<glyph glyph-name="ecircumflex" horiz-adv-x="491" unicode="ê" d="M323 1478l-27 17q-10 124 -59 307q-26 -66 -55 -156t-31 -110l-35 -47l-37 26q2 45 71.5 195.5t99.5 150.5t30 -41.5t9.5 -80t27 -86.5t24.5 -74l-2 -13l15 -30l-2 -11q8 -16 8 -22q0 -19 -37 -25zM109 16l2 52l-7 8q15 41 15 84l-10 270l14 617l-8 245q0 58 59 58 q23 0 33 -13q7 -2 59 -8q126 -14 129 -51q0 -16 -39 -39q-113 37 -166 39l-10 -12q2 -29 2 -88l-8 -318q0 -57 29 -57l69 4q78 0 80 -37q0 -21 -10.5 -37t-37.5 -16t-40 16l-67 10h-9l-10 -10v-6q4 -53 4 -162l-4 -291q0 -204 28 -226q18 -15 66 -15l76 4q60 0 60 -27 q0 -37 -89 -37h-169q-38 0 -41 43z"/>
<glyph glyph-name="edieresis" horiz-adv-x="491" unicode="ë" d="M31 1514q0 -17 -16.5 -26t-34 -9t-28.5 17t-11 34.5t15.5 34t33.5 16.5q41 0 41 -67zM413.5 1501.5q-12.5 14.5 -12.5 32t15.5 33.5t33.5 16t32 -16.5t14 -32.5q0 -47 -54 -47q-16 0 -28.5 14.5zM109 16l2 52l-7 8q15 41 15 84l-10 270l14 617l-8 245q0 58 59 58 q23 0 33 -13q7 -2 59 -8q126 -14 129 -51q0 -16 -39 -39q-113 37 -166 39l-10 -12q2 -29 2 -88l-8 -318q0 -57 29 -57l69 4q78 0 80 -37q0 -21 -10.5 -37t-37.5 -16t-40 16l-67 10h-9l-10 -10v-6q4 -53 4 -162l-4 -291q0 -204 28 -226q18 -15 66 -15l76 4q60 0 60 -27 q0 -37 -89 -37h-169q-38 0 -41 43z"/>
<glyph glyph-name="igrave" horiz-adv-x="550" unicode="ì" d="M36 1552q-20 -4 -33 -4q-70 0 -70 41q0 36 13 45q74 0 92 -23q2 -1 24.5 -8.5t38.5 -13.5t42.5 -16.5t46 -19.5t38.5 -19q39 -22 39 -39q0 -7 -8.5 -12t-14 -5t-102.5 34.5t-106 39.5zM424 16l-68 7q-16 0 -38 -11.5t-52.5 -11.5t-38.5 20l-34 -2q-44 0 -56 21 q0 13 11.5 21.5t15.5 13.5h59l8 8l7 43l-15 448l10 478q0 139 -10 237q-20 6 -61 6l-49 -4q-39 0 -39 35q0 9 18.5 17t30.5 8q285 0 285 -62q0 -6 -5 -16l-47 -4q-16 12 -59 12l-10 -6q6 -18 6 -109l-6 -487l14 -449l-2 -63q0 -48 6 -57l-2 -5q0 -20 45 -20l60 2 q61 0 61 -29q0 -18 -13 -29.5t-32 -11.5z"/>
<glyph glyph-name="iacute" horiz-adv-x="550" unicode="í" d="M242 1479q-37 0 -37 30q0 12 121.5 105.5t132.5 103.5q45 0 45 -32q0 -1 -6 -31q-103 -46 -256 -176zM424 16l-68 7q-16 0 -38 -11.5t-52.5 -11.5t-38.5 20l-34 -2q-44 0 -56 21q0 13 11.5 21.5t15.5 13.5h59l8 8l7 43l-15 448l10 478q0 139 -10 237q-20 6 -61 6l-49 -4 q-39 0 -39 35q0 9 18.5 17t30.5 8q285 0 285 -62q0 -6 -5 -16l-47 -4q-16 12 -59 12l-10 -6q6 -18 6 -109l-6 -487l14 -449l-2 -63q0 -48 6 -57l-2 -5q0 -20 45 -20l60 2q61 0 61 -29q0 -18 -13 -29.5t-32 -11.5z"/>
<glyph glyph-name="icircumflex" horiz-adv-x="550" unicode="î" d="M345 1478l-27 17q-10 124 -59 307q-26 -66 -55 -156t-31 -110l-35 -47l-37 26q2 45 71.5 195.5t99.5 150.5t30 -41.5t9.5 -80t27 -86.5t24.5 -74l-2 -13l15 -30l-2 -11q8 -16 8 -22q0 -19 -37 -25zM424 16l-68 7q-16 0 -38 -11.5t-52.5 -11.5t-38.5 20l-34 -2 q-44 0 -56 21q0 13 11.5 21.5t15.5 13.5h59l8 8l7 43l-15 448l10 478q0 139 -10 237q-20 6 -61 6l-49 -4q-39 0 -39 35q0 9 18.5 17t30.5 8q285 0 285 -62q0 -6 -5 -16l-47 -4q-16 12 -59 12l-10 -6q6 -18 6 -109l-6 -487l14 -449l-2 -63q0 -48 6 -57l-2 -5q0 -20 45 -20 l60 2q61 0 61 -29q0 -18 -13 -29.5t-32 -11.5z"/>
<glyph glyph-name="idieresis" horiz-adv-x="550" unicode="ï" d="M53 1514q0 -17 -16.5 -26t-34 -9t-28.5 17t-11 34.5t15.5 34t33.5 16.5q41 0 41 -67zM435.5 1501.5q-12.5 14.5 -12.5 32t15.5 33.5t33.5 16t32 -16.5t14 -32.5q0 -47 -54 -47q-16 0 -28.5 14.5zM424 16l-68 7q-16 0 -38 -11.5t-52.5 -11.5t-38.5 20l-34 -2q-44 0 -56 21 q0 13 11.5 21.5t15.5 13.5h59l8 8l7 43l-15 448l10 478q0 139 -10 237q-20 6 -61 6l-49 -4q-39 0 -39 35q0 9 18.5 17t30.5 8q285 0 285 -62q0 -6 -5 -16l-47 -4q-16 12 -59 12l-10 -6q6 -18 6 -109l-6 -487l14 -449l-2 -63q0 -48 6 -57l-2 -5q0 -20 45 -20l60 2 q61 0 61 -29q0 -18 -13 -29.5t-32 -11.5z"/>
<glyph glyph-name="eth" horiz-adv-x="516" unicode="ð" d="M377 727v117q-21 16 -62 24q-67 0 -100 -156q-33 -157 -39 -275q-8 -184 -8 -263q0 -162 76 -162q42 0 56 15t22 24q6 9 10 27t6 28t3 32q2 22 3 28q33 267 33 561zM483 1313q0 -6 -88 -17q35 -191 35 -481v-8q0 -196 -10 -438q-2 -21 -8 -107t-16 -133t-24 -80 q-34 -78 -112 -78q-125 0 -138 139q-3 26 -3 66q1 40 1 74t2 104t9 124q5 54 15 124q10 69 26 120t38 97q43 94 122 94q21 0 45 -16q-7 226 -33 391q-114 -12 -136 -12t-22 8q0 29 23 29q59 0 131 10q-24 142 -61 174q-6 5 -25 13q-45 19 -45 40q1 7 9 13t15 6 q106 0 158 -240q54 4 74 4t20 -10z"/>
<glyph glyph-name="ntilde" horiz-adv-x="862" unicode="ñ" d="M559 1608l-12 39q6 12 25.5 12t31 -22t11.5 -56.5t-33 -67t-73 -32.5t-77 21.5t-56 41t-52 58.5l-14 6h-37q-3 -12 -21 -25t-18 -25.5t10 -47.5l-22 -31q-13 0 -26 11t-13 24q0 63 32 104t93 41q66 -34 81 -45q15 -30 40 -55t44 -25t25 2l14 -4q5 14 20 23q27 16 27 53z M682 1247l-4 51q0 43 29 43q20 0 32.5 -19t12.5 -40v-137l-11 -17q0 -160 -22 -619.5t-43 -502.5q-6 -2 -30 -8q-3 -1 -5 -1q0 1 -2 1l1 -1q-19 -5 -28 -5q-10 0 -18 13.5t-12.5 35.5t-8.5 29l2 6q-13 85 -53.5 194.5t-52.5 147.5q-7 9 -55 153q-184 571 -232 617 q-16 -63 -16 -144l4 -161l-4 -99q0 -23 8 -143h-6q0 -341 14 -377v-184q8 -14 8 -36q0 -48 -38 -48q-43 0 -43 110l8 134l-13 589l13 363v36q0 27 1.5 36t3 21.5t4.5 19.5t7 16q8 18 21 29l6 -7l20 5q23 -8 28 -32q0 -2 2.5 -11.5t2.5 -10.5q35 -146 147 -407t136 -335.5 t43 -157.5q42 -184 92 -269l4 6q47 447 47 1116zM640 -3l1 -1v1h-1z"/>
<glyph glyph-name="ograve" horiz-adv-x="673" unicode="ò" d="M95 1552q-20 -4 -33 -4q-70 0 -70 41q0 36 13 45q74 0 92 -23q2 -1 24.5 -8.5t38.5 -13.5t42.5 -16.5t46 -19.5t38.5 -19q39 -22 39 -39q0 -7 -8.5 -12t-14 -5t-102.5 34.5t-106 39.5zM158 717l4 -162q0 -195 44 -371q16 -66 47.5 -115t72 -49t71 30t48.5 83.5t30 109 t17 124.5q8 110 8 196l-23 484l-8 16l4 10q0 89 -50 155t-122 66h-86q-17 0 -30 -182.5t-17 -202.5zM559 791l4 -244q0 -461 -148 -561q-36 -25 -81 -25q-240 0 -240 754q0 291 40 505q30 156 91 156q14 0 26.5 -11t34 -18.5t59 -14.5t53.5 -10q41 -7 79 -79 q86 -146 86 -442z"/>
<glyph glyph-name="oacute" horiz-adv-x="673" unicode="ó" d="M302 1479q-37 0 -37 30q0 12 121.5 105.5t132.5 103.5q45 0 45 -32q0 -1 -6 -31q-103 -46 -256 -176zM158 717l4 -162q0 -195 44 -371q16 -66 47.5 -115t72 -49t71 30t48.5 83.5t30 109t17 124.5q8 110 8 196l-23 484l-8 16l4 10q0 89 -50 155t-122 66h-86 q-17 0 -30 -182.5t-17 -202.5zM559 791l4 -244q0 -461 -148 -561q-36 -25 -81 -25q-240 0 -240 754q0 291 40 505q30 156 91 156q14 0 26.5 -11t34 -18.5t59 -14.5t53.5 -10q41 -7 79 -79q86 -146 86 -442z"/>
<glyph glyph-name="ocircumflex" horiz-adv-x="673" unicode="ô" d="M404 1478l-27 17q-10 124 -59 307q-26 -66 -55 -156t-31 -110l-35 -47l-37 26q2 45 71.5 195.5t99.5 150.5t30 -41.5t9.5 -80t27 -86.5t24.5 -74l-2 -13l15 -30l-2 -11q8 -16 8 -22q0 -19 -37 -25zM158 717l4 -162q0 -195 44 -371q16 -66 47.5 -115t72 -49t71 30 t48.5 83.5t30 109t17 124.5q8 110 8 196l-23 484l-8 16l4 10q0 89 -50 155t-122 66h-86q-17 0 -30 -182.5t-17 -202.5zM559 791l4 -244q0 -461 -148 -561q-36 -25 -81 -25q-240 0 -240 754q0 291 40 505q30 156 91 156q14 0 26.5 -11t34 -18.5t59 -14.5t53.5 -10 q41 -7 79 -79q86 -146 86 -442z"/>
<glyph glyph-name="otilde" horiz-adv-x="673" unicode="õ" d="M459 1608l-12 39q6 12 25.5 12t31 -22t11.5 -56.5t-33 -67t-73 -32.5t-77 21.5t-56 41t-52 58.5l-14 6h-37q-3 -12 -21 -25t-18 -25.5t10 -47.5l-22 -31q-13 0 -26 11t-13 24q0 63 32 104t93 41q66 -34 81 -45q15 -30 40 -55t44 -25t25 2l14 -4q5 14 20 23q27 16 27 53z M158 717l4 -162q0 -195 44 -371q16 -66 47.5 -115t72 -49t71 30t48.5 83.5t30 109t17 124.5q8 110 8 196l-23 484l-8 16l4 10q0 89 -50 155t-122 66h-86q-17 0 -30 -182.5t-17 -202.5zM559 791l4 -244q0 -461 -148 -561q-36 -25 -81 -25q-240 0 -240 754q0 291 40 505 q30 156 91 156q14 0 26.5 -11t34 -18.5t59 -14.5t53.5 -10q41 -7 79 -79q86 -146 86 -442z"/>
<glyph glyph-name="odieresis" horiz-adv-x="673" unicode="ö" d="M113 1514q0 -17 -16.5 -26t-34 -9t-28.5 17t-11 34.5t15.5 34t33.5 16.5q41 0 41 -67zM495.5 1501.5q-12.5 14.5 -12.5 32t15.5 33.5t33.5 16t32 -16.5t14 -32.5q0 -47 -54 -47q-16 0 -28.5 14.5zM158 717l4 -162q0 -195 44 -371q16 -66 47.5 -115t72 -49t71 30 t48.5 83.5t30 109t17 124.5q8 110 8 196l-23 484l-8 16l4 10q0 89 -50 155t-122 66h-86q-17 0 -30 -182.5t-17 -202.5zM559 791l4 -244q0 -461 -148 -561q-36 -25 -81 -25q-240 0 -240 754q0 291 40 505q30 156 91 156q14 0 26.5 -11t34 -18.5t59 -14.5t53.5 -10 q41 -7 79 -79q86 -146 86 -442z"/>
<glyph glyph-name="divide" horiz-adv-x="620" unicode="÷" d="M354 557q17 -1 26 -17t9 -34t-17 -28q-16 -11 -34 -11q-18 -1 -34 15t-17 34q0 41 67 41zM366 940q-14 -12 -32 -12t-33 15q-16 15 -16 33q1 18 17 32t32 14q47 0 47 -53q-1 -17 -15 -29zM506 741q0 -16 -56 -18t-96 -2h-219q-17 -1 -30 9t-13 26q0 6 201 6h190 q7 0 15 -7t8 -14z"/>
<glyph glyph-name="oslash" horiz-adv-x="565" unicode="ø" d="M152 647q0 -65 12 -196t12 -197q19 116 56 455t40 361t10 64q13 92 13 130q-1 38 -19 52t-30 15q-12 0 -41 -10l-10 2q-58 -31 -58 -541q0 -97 15 -135zM212 191q-12 -44 -11 -85q0 -81 84 -81q121 0 121 344q0 345 -20 569t-48 279q-34 -204 -74 -593t-52 -433zM449 764 l6 -354q0 -140 -11 -198t-25 -99t-33 -67q-46 -60 -114 -60t-94 37h-2l-2 -15q-30 -256 -51 -256t-21 29l50 323q0 13 -7 37t-11 47q-4 24 -10 66t-9 78q-4 36 -7 85t-5 79q-1 30 -3 86t-2 80t-2 86v80v165q0 389 137 389q23 0 56 -22l6 4l14 -14l45 241h33v-18l-41 -262 q0 -15 27 -56l-2 -4q2 -12 14 -31q37 -59 37 -149l-4 -2q0 -49 13 -145t13 -144v-10z"/>
<glyph glyph-name="ugrave" horiz-adv-x="651" unicode="ù" d="M105 1565q-20 -4 -33 -4q-70 0 -70 41q0 36 13 45q74 0 92 -23q2 -1 24.5 -8.5t38.5 -13.5t42.5 -16.5t46 -19.5t38.5 -19q39 -22 39 -39q0 -7 -8.5 -12t-14 -5t-102.5 34.5t-106 39.5zM520 920l2 -41q-4 -52 -5.5 -140t-3 -167t-5.5 -171t-16 -165q-28 -174 -91 -232 q-38 -36 -83 -36q-36 0 -76 23q-39 22 -65.5 55t-42.5 212.5t-19 378.5q-9 598 -19 682l13 29q47 -6 47 -113l6 -543l22 -434q0 -233 154 -233q95 0 120 429q2 29 9.5 277t7.5 598l-4 37q0 23 29.5 23t35 -13.5t5.5 -121t-13 -158.5q2 -4 2 -13z"/>
<glyph glyph-name="uacute" horiz-adv-x="651" unicode="ú" d="M312 1491q-37 0 -37 30q0 12 121.5 105.5t132.5 103.5q45 0 45 -32q0 -1 -6 -31q-103 -46 -256 -176zM520 920l2 -41q-4 -52 -5.5 -140t-3 -167t-5.5 -171t-16 -165q-28 -174 -91 -232q-38 -36 -83 -36q-36 0 -76 23q-39 22 -65.5 55t-42.5 212.5t-19 378.5 q-9 598 -19 682l13 29q47 -6 47 -113l6 -543l22 -434q0 -233 154 -233q95 0 120 429q2 29 9.5 277t7.5 598l-4 37q0 23 29.5 23t35 -13.5t5.5 -121t-13 -158.5q2 -4 2 -13z"/>
<glyph glyph-name="ucircumflex" horiz-adv-x="651" unicode="û" d="M414 1491l-27 17q-10 124 -59 307q-26 -66 -55 -156t-31 -110l-35 -47l-37 26q2 45 71.5 195.5t99.5 150.5t30 -41.5t9.5 -80t27 -86.5t24.5 -74l-2 -13l15 -30l-2 -11q8 -16 8 -22q0 -19 -37 -25zM520 920l2 -41q-4 -52 -5.5 -140t-3 -167t-5.5 -171t-16 -165 q-28 -174 -91 -232q-38 -36 -83 -36q-36 0 -76 23q-39 22 -65.5 55t-42.5 212.5t-19 378.5q-9 598 -19 682l13 29q47 -6 47 -113l6 -543l22 -434q0 -233 154 -233q95 0 120 429q2 29 9.5 277t7.5 598l-4 37q0 23 29.5 23t35 -13.5t5.5 -121t-13 -158.5q2 -4 2 -13z"/>
<glyph glyph-name="udieresis" horiz-adv-x="651" unicode="ü" d="M123 1526q0 -17 -16.5 -26t-34 -9t-28.5 17t-11 34.5t15.5 34t33.5 16.5q41 0 41 -67zM505.5 1513.5q-12.5 14.5 -12.5 32t15.5 33.5t33.5 16t32 -16.5t14 -32.5q0 -47 -54 -47q-16 0 -28.5 14.5zM520 920l2 -41q-4 -52 -5.5 -140t-3 -167t-5.5 -171t-16 -165 q-28 -174 -91 -232q-38 -36 -83 -36q-36 0 -76 23q-39 22 -65.5 55t-42.5 212.5t-19 378.5q-9 598 -19 682l13 29q47 -6 47 -113l6 -543l22 -434q0 -233 154 -233q95 0 120 429q2 29 9.5 277t7.5 598l-4 37q0 23 29.5 23t35 -13.5t5.5 -121t-13 -158.5q2 -4 2 -13z"/>
<glyph glyph-name="yacute" horiz-adv-x="561" unicode="ý" d="M269 1479q-37 0 -37 30q0 12 121.5 105.5t132.5 103.5q45 0 45 -32q0 -1 -6 -31q-103 -46 -256 -176zM350 442l2 -325q0 -148 -43 -148q-7 0 -17 8t-13 15q20 50 20 358q0 60 -7.5 171t-8.5 145l-13 26l6 25q-26 60 -96 259q-102 285 -104 331l28 22q20 -3 60 -130.5 t78.5 -255.5t54.5 -132l8 37l-4 10q15 18 39.5 145.5t52.5 242t54 114.5t26 -22t-22 -99.5t-41 -141.5t-28.5 -99t-21.5 -88q-24 -100 -24 -187q10 -25 10 -35l-12 -59z"/>
<glyph glyph-name="thorn" horiz-adv-x="530" unicode="þ" d="M184 934l-2 -143v-25l8 -27h15q135 0 135 273q0 37 -6 127l-4 4q-13 170 -103 170q-45 0 -45 -269zM172 150l2 -93q76 -1 130 71t54 151v3q1 18 1 35q1 17 -1 59t-7 76t-17 76t-30 71q-42 69 -116 69q-10 -152 -10 -270t6 -150q-12 -22 -12 -98zM121 1329q0 53 43 53 q28 0 106 -24t78 -43q-2 -4 -2 -6q38 -61 51 -121t13 -182t-33 -211h2q-7 -19 -31 -53t-29 -44q39 -30 63 -88t30 -103t8 -108l2 -53v-29q0 -196 -122 -290q-65 -50 -157 -50q-19 1 -29 13t-11 31t-1 63l21 432l-4 182l12 490q0 78 -2 119l-8 10v12z"/>
<glyph glyph-name="dotlessi" horiz-adv-x="550" unicode="ı" d="M424 16l-68 7q-16 0 -38 -11.5t-52.5 -11.5t-38.5 20l-34 -2q-44 0 -56 21q0 13 11.5 21.5t15.5 13.5h59l8 8l7 43l-15 448l10 478q0 139 -10 237q-20 6 -61 6l-49 -4q-39 0 -39 35q0 9 18.5 17t30.5 8q285 0 285 -62q0 -6 -5 -16l-47 -4q-16 12 -59 12l-10 -6 q6 -18 6 -109l-6 -487l14 -449l-2 -63q0 -48 6 -57l-2 -5q0 -20 45 -20l60 2q61 0 61 -29q0 -18 -13 -29.5t-32 -11.5z"/>
<glyph glyph-name="OE" horiz-adv-x="1163" unicode="Œ" d="M143 967l2 -146q0 -48 -2 -73l4 -7q0 -102 18 -249q35 -285 103 -295q115 -125 262 -125q130 0 180 38q23 18 23 44q0 168 -14 500t-14 499l-13 248q-72 96 -266 96q-123 0 -186 -97q-61 -95 -76 -186q-21 -137 -21 -247zM1073 -14l-311 -6q-46 0 -49 30l12 33 q-21 -3 -69 -18t-76 -15q-231 0 -356 157q-120 149 -120 378l-10 420q0 294 110 475q69 112 187 112q223 0 295 -79l-6 22l31 43l80 -12h151l45 4q31 -21 31 -37q0 -23 -37 -23l-242 9q1 -75 15 -227t14 -228l-4 -106q0 -50 10 -84l80 -3l53 5q30 0 49 -25q0 -19 -6 -26 t-26 -7l-93 6q-59 0 -59 -18l14 -731q144 8 158 8q141 0 141 -39z"/>
<glyph glyph-name="oe" horiz-adv-x="1165" unicode="œ" d="M158 717l4 -162q0 -195 44 -371q16 -66 48 -115t72 -49t70 30t49 84q18 54 30 108q12 56 17 125q8 110 8 196l-23 484l-8 16l4 10q0 89 -50 155t-122 66h-86q-17 0 -30 -182t-17 -203zM500 16l2 52l-6 8q7 22 10 41q-57 -156 -172 -156q-240 0 -240 754q0 291 40 505 q30 156 91 156q15 0 27 -11t34 -19t58 -14q38 -7 54 -10q41 -7 79 -79q16 -27 33 -69q-4 78 -4 118q0 58 59 58q23 0 33 -13q7 -2 60 -8q125 -14 128 -51q0 -16 -38 -39q-113 37 -166 39l-11 -12q2 -29 2 -88l-8 -318q0 -57 29 -57l70 4q77 0 79 -37q-1 -21 -11 -37t-37 -16 t-40 16l-67 10h-8l-11 -16q4 -53 4 -162l-4 -291q0 -204 28 -226q19 -15 67 -15l75 4q60 0 60 -27q0 -37 -88 -37h-170q-38 0 -41 43z"/>
<glyph glyph-name="Scaron" horiz-adv-x="569" unicode="Š" d="M283 2042l27 16q37 -6 37 -24q0 -7 -8 -23l2 -10l-15 -31l2 -12q-7 -26 -24 -75q-37 -101 -37 -154.5t-30 -53.5t-99.5 150.5t-71.5 195.5l37 27l35 -47q3 -34 43.5 -147.5t42.5 -118.5q49 183 59 307zM395 692l-2 -8q0 -1 47 -158q31 -122 31 -188t-15.5 -129t-45 -121 t-81 -95.5t-99 -37.5t-67.5 2q-59 6 -83 49q0 25 21.5 25t58 -15.5t69.5 -15.5t70.5 38t57.5 94q40 114 40 213.5t-30 202.5t-73.5 188t-86.5 170q-103 202 -103 382q0 149 90 238q49 47 115 47q21 0 54 -16.5t40 -34.5l-12 -23q-46 0 -67 21q-49 0 -84 -37 q-66 -68 -66 -178q0 -81 13 -134.5t20 -81.5t25 -71t26.5 -64t33 -69t32 -62t37 -67.5t34.5 -63.5z"/>
<glyph glyph-name="scaron" horiz-adv-x="489" unicode="š" d="M254 1847l27 16q37 -6 37 -24q0 -7 -8 -23l2 -10l-15 -31l2 -12q-7 -26 -24 -75q-37 -101 -37 -154.5t-30 -53.5t-99.5 150.5t-71.5 195.5l37 27l35 -47q3 -34 43.5 -147.5t42.5 -118.5q49 183 59 307zM317 1313v-2h2q0 2 -2 2zM303 1305l-43 12q-32 0 -56 -25.5 t-36 -63.5q-25 -74 -25 -116t2 -60t7.5 -42t7.5 -34t11.5 -41.5t10.5 -35.5l15 -37q20 -36 52 -90.5t48 -82.5t37 -73.5t30 -82.5q25 -95 25 -170.5t-6 -121t-22.5 -93.5t-40.5 -84q-55 -84 -154 -84l-10 -5q-60 11 -66 50l10 16l74 -14q47 0 81 36.5t51 92.5 q30 104 30 192.5t-25.5 167t-61.5 143.5l-72 130q-87 157 -87 309q0 78 28 149q51 131 134 131q23 0 50.5 -17.5t27.5 -39.5q0 -16 -27 -16z"/>
<glyph glyph-name="Ydieresis" horiz-adv-x="505" unicode="Ÿ" d="M52 1708q0 -17 -16.5 -26t-34 -9t-28.5 17t-11 34.5t15.5 34t33.5 16.5q41 0 41 -67zM434.5 1695.5q-12.5 14.5 -12.5 32t15.5 33.5t33.5 16t32 -16.5t14 -32.5q0 -47 -54 -47q-16 0 -28.5 14.5zM289 -25q-29 0 -29 50l10 395l-14 166q0 33 -12.5 96t-12.5 87t-5.5 53 t-15.5 70t-14.5 63.5t-23.5 122.5q-41 209 -69.5 304.5t-28.5 121.5q0 42 41 42l24 -16q5 -83 53.5 -323t75.5 -277q32 94 44 235.5t20 214.5q18 160 57 160q31 0 31 -22q0 -16 -8 -44.5t-11.5 -50.5t-23 -131t-28.5 -164q-27 -163 -27 -299l6 -67l-13 -31v-16l15 -246 q0 -277 -4 -414l6 -6l2 -14q0 -23 -11.5 -41.5t-33.5 -18.5z"/>
<glyph glyph-name="circumflex" horiz-adv-x="479" unicode="ˆ" d="M342 950l-27 17q-10 124 -59 307q-26 -66 -55 -156t-31 -110l-35 -47l-37 26q2 45 71.5 195.5t99.5 150.5t30 -41.5t9.5 -80t27 -86.5t24.5 -74l-2 -13l15 -30l-2 -11q8 -16 8 -22q0 -19 -37 -25z"/>
<glyph glyph-name="caron" horiz-adv-x="473" unicode="ˇ" d="M309 1317l27 16q37 -6 37 -24q0 -7 -8 -23l2 -10l-15 -31l2 -12q-7 -26 -24 -75q-37 -101 -37 -154.5t-30 -53.5t-99.5 150.5t-71.5 195.5l37 27l35 -47q3 -34 43.5 -147.5t42.5 -118.5q49 183 59 307z"/>
<glyph glyph-name="ring" horiz-adv-x="395" unicode="˚" d="M150.5 1228q-23.5 -25 -23.5 -47t2.5 -37.5t13.5 -31.5t32.5 -16t52 17t30.5 47t-14.5 61.5t-42 31.5t-51 -25zM110 1090.5q-30 33.5 -30 77t37 84t79 40.5t78.5 -39.5t36.5 -88t-36.5 -78t-85.5 -29.5t-79 33.5z"/>
<glyph glyph-name="tilde" horiz-adv-x="653" unicode="˜" d="M487 1149l-12 39q6 12 25.5 12t31 -22t11.5 -56.5t-33 -67t-73 -32.5t-77 21.5t-56 41t-52 58.5l-14 6h-37q-3 -12 -21 -25t-18 -25.5t10 -47.5l-22 -31q-13 0 -26 11t-13 24q0 63 32 104t93 41q66 -34 81 -45q15 -30 40 -55t44 -25t25 2l14 -4q5 14 20 23q27 16 27 53z "/>
<glyph glyph-name="endash" horiz-adv-x="620" unicode="–" d="M631 727h-62q0 -6 -215 -6h-301q-17 -1 -30 9t-13 26q0 6 283 6h293q15 0 30 -10t15 -25z"/>
<glyph glyph-name="emdash" horiz-adv-x="620" unicode="—" d="M918 727h-62q0 -6 -215 -6h-588q-17 -1 -30 9t-13 26q0 6 570 6h292q14 0 30 -10t16 -25z"/>
<glyph glyph-name="quoteleft" horiz-adv-x="395" unicode="‘" d="M186 1370q60 -36 60 -90q0 -28 -24 -46t-54 -17q-47 0 -68 59l4 6q-4 8 -4 34t25 83q25 58 65 106t74 49l33 -16l-4 -18q-107 -86 -107 -150z"/>
<glyph glyph-name="quotesinglbase" horiz-adv-x="407" unicode="‚" d="M100 -162l4 19q107 89 107 149q-25 14 -42 39t-17 52t24 45t53 18q46 0 68 -60l-4 -6q4 -8 4 -33t-25 -83t-65 -106t-74 -50z"/>
<glyph glyph-name="quotedblleft" horiz-adv-x="608" unicode="“" d="M399 1370q60 -36 60 -90q-1 -28 -25 -46t-53 -17q-47 0 -68 59l4 6q-4 8 -4 34t25 83q25 58 65 106t74 49l33 -16l-4 -18q-107 -86 -107 -150zM186 1370q60 -36 60 -90q0 -28 -24 -46t-54 -17q-47 0 -68 59l4 6q-4 8 -4 34t25 83q25 58 65 106t74 49l33 -16l-4 -18 q-107 -86 -107 -150z"/>
<glyph glyph-name="quotedblright" horiz-adv-x="643" unicode="”" d="M453 1401q-60 36 -60 90q1 27 25 45t53 18q47 0 68 -59l-4 -6q4 -7 4 -33t-25 -84t-65 -106t-74 -49l-33 16l4 18q107 86 107 150zM207 1401q-60 36 -60 90q1 27 25 45t53 18q47 0 68 -59l-4 -6q4 -7 4 -33t-25 -84t-65 -106t-74 -49l-33 16l4 18q107 86 107 150z"/>
<glyph glyph-name="ellipsis" horiz-adv-x="983" unicode="…" d="M782 8q-14 16 -14 34t16 36t36 18q18 0 34 -18t16 -35q0 -51 -57 -51q-17 0 -31 16zM454 8q-14 16 -14 34t17 36t36 18t35 -18t15 -35q0 -51 -58 -51q-17 0 -31 16zM126 8q-14 16 -13 34t17 36t35 18t35 -18t15 -35q0 -51 -57 -51q-18 0 -32 16z"/>
<glyph glyph-name="guilsinglleft" horiz-adv-x="569" unicode="‹" d="M461 0l-27 4h-4q-32 47 -69 131t-48 107l-102 213q-5 11 -21 43t-24 51q-6 19 -44 69t-38 78t48 141t106 243t64 152t16 55q10 34 18 59q23 71 49 75l27 -20q-18 -119 -140 -362q-116 -233 -116 -339q0 -16 141 -304t174 -343l18 -14q-3 -11 -11 -25t-17 -14z"/>
<glyph glyph-name="guilsinglright" horiz-adv-x="569" unicode="›" d="M139 4l-30 -4q-9 0 -18 14t-11 25l18 14q36 65 176 347t140 300q0 106 -116 339q-122 243 -140 362l26 20q28 -6 50 -75q6 -24 16 -58t17 -56t65 -151q153 -344 153 -378q1 -34 -37 -85q-38 -52 -45 -70t-24 -50t-21 -43l-176 -365q-37 -77 -43 -86z"/>
<glyph glyph-name="fraction" horiz-adv-x="559" unicode="⁄" d="M479 1505q0 -17 -20 -99t-33 -142t-219 -965l-41 -178q-2 -7 -6 -29t-8 -34q-4 -13 -9 -30q-12 -32 -37 -34q-20 13 -20 47t10 90t34 142q22 86 93 401q71 316 131 546t64 241q2 11 6 22t7 23q9 26 18 26q30 0 30 -27z"/>
<glyph glyph-name="Euro" horiz-adv-x="606" unicode="€" d="M156 946l20 -180q0 -733 164 -733q58 0 88 109q28 106 33 192q8 138 8 229t-16 261t-47 247v88q-22 56 -24 116q-2 61 -10 95t-21 59q-31 56 -134 68q-48 -39 -59 -69t-11 -99zM100 1036l2 328q12 20 22 68t22 69q23 41 102 41q20 0 56 -20t56 -40q20 -18 32 -44 q14 -26 23 -43q9 -19 15 -53t10 -49q6 -47 10 -81t12 -95q8 -60 10 -72q2 -13 8 -67q8 -54 10 -72t6 -66q6 -48 8 -72t6 -66t4 -72q4 -69 4 -125q0 -57 -2 -97t-8 -104t-18 -114q-14 -52 -34 -100q-44 -104 -134 -104q-19 0 -66 26q-97 60 -150 762l9 8l-2 146 q-13 17 -13 108z"/>
<glyph glyph-name="trademark" horiz-adv-x="1075" unicode="™" d="M874 1192l7 127q0 14 -4 20q-2 -9 -14 -70q-28 -144 -52 -161q-12 -24 -12 -68l-6 -6l2 -4q-1 -3 -11 -52q-22 -114 -54 -114t-44 38t-14 92q-4 53 -13 69q-8 65 -38 183t-39 169q-15 -199 -15 -431t11 -251v-8q0 -69 -22 -79q-11 -5 -30 -5q-24 0 -24 49l12 217 q0 426 18 639q4 4 13 16q19 27 34 27t37 -22q-2 -6 -2 -43q0 -38 44 -174t48 -158t8 -54q8 -80 19 -85q57 137 85 247t43 168q13 58 17 76t6 26q2 10 9 22q6 12 16 18t23 6t23 -8t10 -21l-23 -434l14 -367q0 -145 -53 -145q-15 1 -23 5t-8 20l13 235zM322 1362l14 -492 q0 -82 -6 -161q8 -24 8 -30t-15 -17t-28 -15l-29 15q2 8 2 26l-2 51v11q6 6 6 62t-6 67q4 54 4 82l-8 229l6 213q0 88 -10 98l-113 -8q-57 0 -57 20v7l14 24q24 2 92 8q132 13 209 13l56 -4l24 -25q0 -35 -75 -35l-74 2l-6 -8q-6 -67 -6 -133z"/>
<glyph glyph-name="minus" horiz-adv-x="620" unicode="−" d="M610 739q0 -7 -170 -13t-284 -5q-15 -1 -29 9t-14 26q1 6 175 12t277 6q15 0 30 -10t15 -25z"/>
</font>
</defs>
</svg>
