<?xml version="1.0" encoding="UTF-8" standalone="no"?>
<!DOCTYPE svg  PUBLIC '-//W3C//DTD SVG 1.1//EN'  'http://www.w3.org/Graphics/SVG/1.1/DTD/svg11.dtd'>
<svg xmlns="http://www.w3.org/2000/svg">
<defs>
<font id="Archer-Bold" horiz-adv-x="767">
<font-face underline-position="-50" font-weight="400" descent="-200" panose-1="0 0 0 0 0 0 0 0 0 0" units-per-em="1000" unicode-range="U+0020-2212" bbox="-49 -227 999 948" x-height="438" underline-thickness="50" font-family="Archer" ascent="800" cap-height="658"/>
<missing-glyph horiz-adv-x="1000"/>
<glyph glyph-name=".notdef" horiz-adv-x="1000"/>
<glyph glyph-name=".null" horiz-adv-x="0"/>
<glyph glyph-name="nonmarkingreturn" horiz-adv-x="333"/>
<glyph glyph-name="space" horiz-adv-x="220" unicode=" "/>
<glyph glyph-name="exclam" horiz-adv-x="278" unicode="!" d="M139 -8q-31 0 -52.5 21.5t-21.5 52.5t21.5 53t52.5 22t52.5 -22t21.5 -53t-21.5 -52.5t-52.5 -21.5zM109 199l-39 458h138l-39 -458h-60z"/>
<glyph glyph-name="quotedbl" horiz-adv-x="424" unicode='&quot;' d="M80 374l-43 202q-2 8 -2 23q0 33 19.5 52t49.5 19t49.5 -19t19.5 -52q0 -15 -2 -23l-44 -202h-47zM295 374l-43 202q-2 8 -2 23q0 33 19.5 52t49.5 19t49.5 -19t19.5 -52q0 -15 -2 -23l-44 -202h-47z"/>
<glyph glyph-name="numbersign" horiz-adv-x="580" unicode="#" d="M242 327l-18 -118h112l19 118h-113zM65 323v88h94l18 114h100l-18 -114h105l18 114h100l-18 -114h83v-88h-96l-17 -110h81v-88h-95l-19 -125h-100l19 125h-105l-19 -125h-100l19 125h-82v88h96l17 110h-81z"/>
<glyph glyph-name="dollar" horiz-adv-x="532" unicode="$" d="M165 380q0 -22 16 -33.5t56 -20.5l10 116q-37 -5 -59.5 -21.5t-22.5 -40.5zM382 149q0 21 -22 34.5t-70 24.5l-11 -124q45 2 74 18t29 47zM336 584l-6 -65q62 -9 105.5 -36.5t43.5 -76.5q0 -29 -16.5 -46.5t-42.5 -17.5q-29 0 -46 17t-17 43q0 18 4 27q-15 6 -46 11 l-11 -129q37 -8 64.5 -17.5t57.5 -26t46.5 -44t16.5 -63.5q0 -76 -60.5 -117t-152.5 -43l-9 -107l-80 7l9 106q-66 11 -112 40.5t-46 80.5q0 28 17.5 46.5t44.5 18.5t45.5 -17t18.5 -43q0 -11 -4 -29q12 -8 51 -15l12 134q-75 18 -120 51t-45 96t52 106t140 48l6 68z"/>
<glyph glyph-name="percent" horiz-adv-x="701" unicode="%" d="M519 182q-24 0 -39 -17.5t-15 -44.5q0 -26 15 -43t39 -17t39 17t15 43q0 27 -15 44.5t-39 17.5zM519 252q55 0 94.5 -38t39.5 -92t-39.5 -92t-94.5 -38t-94.5 38t-39.5 92t39.5 92t94.5 38zM130 -15l-42 41q121 122 246 252q123 129 237 262l42 -41q-163 -163 -247 -251 q-104 -109 -236 -263zM182 341q24 0 39 17t15 43q0 27 -15 44.5t-39 17.5t-39 -17.5t-15 -44.5q0 -26 15 -43t39 -17zM182 273q-55 0 -94.5 38t-39.5 92t39.5 92t94.5 38t94.5 -38t39.5 -92t-39.5 -92t-94.5 -38z"/>
<glyph glyph-name="ampersand" horiz-adv-x="672" unicode="&amp;" d="M206 489q0 -49 52 -109q87 42 87 117q0 28 -19 47t-51 19q-30 0 -49.5 -23t-19.5 -51zM265 82q73 0 131 46l-114 105q-40 35 -62 57q-77 -43 -77 -114q0 -37 33.5 -65.5t88.5 -28.5zM645 273h-57q-24 -81 -57 -133l94 -80l-62 -72l-94 81q-87 -79 -204 -79 q-112 0 -173.5 48.5t-61.5 128.5q0 57 35 103t95 76q-65 74 -65 145q0 61 49 109t131 48t131.5 -41.5t49.5 -109.5q0 -107 -138 -171l29 -26l115 -104q22 35 36 79h-52v88h199v-90z"/>
<glyph glyph-name="quotesingle" horiz-adv-x="209" unicode="&apos;" d="M80 374l-43 202q-2 8 -2 23q0 33 19.5 52t49.5 19t49.5 -19t19.5 -52q0 -15 -2 -23l-44 -202h-47z"/>
<glyph glyph-name="parenleft" horiz-adv-x="440" unicode="(" d="M385 -227q-38 19 -76.5 46.5t-82.5 72t-77.5 96.5t-55.5 123.5t-22 149.5t22 149.5t55.5 123.5t77.5 96.5t82.5 72t76.5 46.5l52 -77q-40 -26 -70.5 -49t-67 -61.5t-60 -79t-39.5 -98t-16 -123.5t16 -123.5t39.5 -98t60 -79t67 -61.5t70.5 -49z"/>
<glyph glyph-name="parenright" horiz-adv-x="440" unicode=")" d="M55 -227l-52 77q40 26 70.5 49t67 61.5t60 79t39.5 98t16 123.5t-16 123.5t-39.5 98t-60 79t-67 61.5t-70.5 49l52 77q38 -19 76.5 -46.5t82.5 -72t77.5 -96.5t55.5 -123.5t22 -149.5t-22 -149.5t-55.5 -123.5t-77.5 -96.5t-82.5 -72t-76.5 -46.5z"/>
<glyph glyph-name="asterisk" horiz-adv-x="460" unicode="*" d="M362 498l-111 -6l86 -68q30 -24 30 -52q0 -22 -20 -36q-14 -10 -28 -10q-34 0 -52 47l-37 99l-37 -99q-18 -47 -52 -47q-14 0 -28 10q-20 14 -20 36q0 28 30 52l86 68l-111 6q-28 2 -45 14.5t-17 33.5q0 9 3 18q11 30 42 30q21 0 43 -14l92 -60l-29 107q-4 18 -4 26 q0 22 12 36t35 14t35 -14t12 -36q0 -8 -4 -26l-29 -107l92 60q22 14 43 14q31 0 42 -30q3 -9 3 -18q0 -21 -17 -33.5t-45 -14.5z"/>
<glyph glyph-name="plus" horiz-adv-x="464" unicode="+" d="M186 103v134h-134v92h134v134h92v-134h134v-92h-134v-134h-92z"/>
<glyph glyph-name="comma" horiz-adv-x="256" unicode="," d="M37 -173l-32 41q98 78 102 134q-28 8 -45 29t-17 50q0 30 24.5 53t57.5 23q37 0 61.5 -26t24.5 -73q0 -54 -42.5 -116.5t-133.5 -114.5z"/>
<glyph glyph-name="hyphen" horiz-adv-x="374" unicode="-" d="M42 227v112h290v-112h-290z"/>
<glyph glyph-name="period" horiz-adv-x="256" unicode="." d="M128 -8q-34 0 -58 24t-24 58t24 58.5t58 24.5t58 -24.5t24 -58.5t-24 -58t-58 -24z"/>
<glyph glyph-name="slash" horiz-adv-x="510" unicode="/" d="M95 -213l-89 40l409 920l89 -40z"/>
<glyph glyph-name="zero" horiz-adv-x="582" unicode="0" d="M291 83q61 0 99.5 50.5t38.5 128.5t-38.5 129t-99.5 51t-99.5 -51t-38.5 -129t38.5 -128.5t99.5 -50.5zM291 -8q-108 0 -179 76.5t-71 193.5t71 194t179 77t179 -77t71 -194t-71 -193.5t-179 -76.5z"/>
<glyph glyph-name="one" horiz-adv-x="437" unicode="1" d="M57 0v90h120v323l-101 -24l-25 90l182 46h53v-435h118v-90h-347z"/>
<glyph glyph-name="two" horiz-adv-x="530" unicode="2" d="M257 442q-62 0 -90 -23q12 -19 12 -37q0 -27 -19.5 -46.5t-46.5 -19.5q-28 0 -48 22t-20 57q0 28 23 57q27 35 78 58t115 23q94 0 150.5 -46t56.5 -107q0 -31 -11.5 -57.5t-35.5 -49t-48.5 -39t-64.5 -38.5q-107 -60 -139 -109h226v84h90v-171h-437l-19 54 q50 115 213 212q60 35 87 58.5t27 52.5q0 28 -28.5 46.5t-70.5 18.5z"/>
<glyph glyph-name="three" horiz-adv-x="503" unicode="3" d="M18 23q0 32 19 54t49 22q27 0 46.5 -19.5t19.5 -46.5q0 -21 -14 -40q37 -30 106 -30q52 0 85 28t33 73q0 64 -65 92q-39 17 -104 17h-30v86h33q64 0 108 22q54 29 54 81q0 39 -31 60t-78 21q-58 0 -84 -20q14 -19 14 -40q0 -27 -19.5 -46.5t-46.5 -19.5q-28 0 -48 22 t-20 57q0 29 20 58q54 79 188 79q94 0 155.5 -47.5t61.5 -119.5q0 -78 -79 -123q-30 -17 -62 -23q30 -8 57 -23q88 -49 88 -140q0 -83 -65 -133.5t-166 -50.5q-68 0 -122.5 24t-81.5 63q-21 31 -21 63z"/>
<glyph glyph-name="four" horiz-adv-x="565" unicode="4" d="M338 -120v166h-288l-25 54l335 444l79 -63l-261 -345h160v113l106 42v-155h98v-90h-98v-166h-106z"/>
<glyph glyph-name="five" horiz-adv-x="516" unicode="5" d="M36 -2q0 33 20 54.5t50 21.5q27 0 46.5 -19.5t19.5 -46.5q0 -14 -9 -32q29 -10 74 -10q60 0 94 35t34 88q0 50 -33.5 80.5t-99.5 30.5q-68 0 -122 -29l-51 28l40 326h342v-102h-260l-17 -140q38 10 85 10q99 0 162.5 -54t63.5 -150q0 -95 -65.5 -156t-165.5 -61 q-118 0 -175 55q-33 31 -33 71z"/>
<glyph glyph-name="six" horiz-adv-x="565" unicode="6" d="M288 82q55 0 92 35.5t37 85.5q0 47 -34.5 79t-89.5 32q-56 0 -95 -33.5t-39 -82.5q0 -47 37 -81q38 -35 92 -35zM308 557q-56 0 -106 -61t-53 -167q21 32 63 53.5t91 21.5q97 0 161 -57.5t64 -143.5q0 -90 -68 -150.5t-172 -60.5q-103 0 -170 67q-74 74 -74 226 q0 170 78.5 266.5t195.5 96.5q100 0 152 -52q29 -29 29 -66q0 -30 -20 -51.5t-47 -21.5q-31 0 -51.5 20t-20.5 47q0 14 4 23q-25 10 -56 10z"/>
<glyph glyph-name="seven" horiz-adv-x="531" unicode="7" d="M197 -122l-92 48l264 510h-239v-112h-96v201h435l28 -62z"/>
<glyph glyph-name="eight" horiz-adv-x="541" unicode="8" d="M270 83q55 0 88 29t33 72t-33 72.5t-88 29.5t-88 -29.5t-33 -72.5t33 -72t88 -29zM270 365q44 0 75 27.5t31 67.5q0 45 -29 71t-77 26t-77 -26t-29 -71q0 -40 31 -67.5t75 -27.5zM270 -8q-105 0 -168.5 53t-63.5 130q0 50 29.5 89.5t82.5 61.5q-45 23 -71.5 60t-26.5 81 q0 77 62 129t156 52t156 -52t62 -129q0 -44 -26.5 -81t-71.5 -60q53 -22 83 -61.5t30 -89.5q0 -77 -64 -130t-169 -53z"/>
<glyph glyph-name="nine" horiz-adv-x="565" unicode="9" d="M369 408q-38 35 -92 35q-55 0 -92 -36t-37 -86q0 -47 34.5 -79.5t89.5 -32.5q56 0 95 34t39 83q0 48 -37 82zM247 -127q-103 0 -154 54q-27 29 -27 64q0 30 20 51.5t47 21.5q31 0 51.5 -20t20.5 -47q0 -9 -4 -23q23 -10 56 -10q57 0 106.5 61.5t52.5 167.5 q-21 -31 -63.5 -52.5t-90.5 -21.5q-96 0 -160.5 58t-64.5 144q0 90 68 151t172 61q103 0 165 -62q79 -79 79 -233q0 -170 -79 -267.5t-195 -97.5z"/>
<glyph glyph-name="colon" horiz-adv-x="276" unicode=":" d="M138 -8q-33 0 -56.5 23.5t-23.5 56.5t23.5 56.5t56.5 23.5t56.5 -23.5t23.5 -56.5t-23.5 -56.5t-56.5 -23.5zM138 256q-33 0 -56.5 23.5t-23.5 56.5t23.5 56.5t56.5 23.5t56.5 -23.5t23.5 -56.5t-23.5 -56.5t-56.5 -23.5z"/>
<glyph glyph-name="semicolon" horiz-adv-x="276" unicode=";" d="M50 -168l-31 40q95 76 99 130q-27 8 -43.5 28t-16.5 48q0 30 23 52t56 22q36 0 60 -25t24 -71q0 -51 -41.5 -112t-129.5 -112zM138 256q-33 0 -56.5 23.5t-23.5 56.5t23.5 56.5t56.5 23.5t56.5 -23.5t23.5 -56.5t-23.5 -56.5t-56.5 -23.5z"/>
<glyph glyph-name="less" horiz-adv-x="424" unicode="&lt;" d="M309 68l-258 186v60l258 186l51 -68l-205 -148l205 -148z"/>
<glyph glyph-name="equal" horiz-adv-x="464" unicode="=" d="M52 143v92h360v-92h-360zM52 331v92h360v-92h-360z"/>
<glyph glyph-name="greater" horiz-adv-x="424" unicode="&gt;" d="M115 68l-51 68l205 148l-205 148l51 68l258 -186v-60z"/>
<glyph glyph-name="question" horiz-adv-x="489" unicode="?" d="M223 -8q-31 0 -52.5 21.5t-21.5 52.5t21.5 53t52.5 22t52.5 -22t21.5 -53t-21.5 -52.5t-52.5 -21.5zM23 517q0 41 27 75q27 35 75 56.5t107 21.5q99 0 161 -53t62 -133q0 -73 -46 -124t-140 -69l-9 -92h-75l-20 162q89 12 130 44.5t41 76.5q0 39 -29.5 65.5t-79.5 26.5 q-60 0 -87 -30q17 -14 17 -42q0 -27 -15.5 -45t-43.5 -18q-30 0 -52.5 21.5t-22.5 56.5z"/>
<glyph glyph-name="at" horiz-adv-x="813" unicode="@" d="M376 123q35 0 65 33t30 86q0 60 -56 60q-35 0 -62.5 -36t-27.5 -82q0 -25 13 -43t38 -18zM352 -179q-136 0 -224.5 91.5t-88.5 240.5q0 192 123 329.5t299 137.5q140 0 227 -83.5t87 -212.5q0 -123 -59 -208.5t-151 -85.5q-51 0 -83 23t-37 62q-52 -85 -128 -85 q-47 0 -77 38t-30 97q0 94 52.5 165t125.5 71q63 0 98 -75l26 67h102l-59 -230q-4 -15 -4 -28q0 -39 42 -39q49 0 87 66t38 158q0 106 -70 177.5t-186 71.5q-102 0 -186.5 -57t-132 -153t-47.5 -208q0 -125 72.5 -202t185.5 -77q81 0 158 41l23 -44q-85 -48 -183 -48z"/>
<glyph glyph-name="A" horiz-adv-x="696" unicode="A" d="M254 302h184l-92 259zM13 0v101h57l164 457h-72v100h372v-100h-72l164 -457h57v-101h-253v100h76l-37 108h-246l-37 -108h80v-100h-253z"/>
<glyph glyph-name="B" horiz-adv-x="596" unicode="B" d="M224 379h77q59 0 91 25t32 68q0 42 -33 64.5t-93 22.5h-74v-180zM224 99h89q60 0 95 24.5t35 70.5t-34.5 70.5t-98.5 24.5h-86v-190zM37 0v101h75v456h-75v101h263q117 0 178.5 -48t61.5 -125q0 -55 -30.5 -92.5t-81.5 -54.5q131 -38 131 -154q0 -84 -65 -134t-183 -50 h-274z"/>
<glyph glyph-name="C" horiz-adv-x="702" unicode="C" d="M394 -12q-153 0 -250.5 94t-97.5 247q0 147 100 244t246 97q110 0 182.5 -48.5t72.5 -110.5q0 -36 -20.5 -58.5t-51.5 -22.5q-34 0 -55 19.5t-21 51.5q0 20 7 34q-38 30 -117 30q-97 0 -161.5 -66.5t-64.5 -168.5q0 -101 64.5 -169t166.5 -68q109 0 189 87l75 -78 q-49 -54 -117.5 -84t-146.5 -30z"/>
<glyph glyph-name="D" horiz-adv-x="711" unicode="D" d="M225 101h65q125 0 191.5 62.5t66.5 170.5q0 107 -71 165t-195 58h-57v-456zM37 0v101h75v456h-75v101h249q178 0 278.5 -86.5t100.5 -236.5q0 -154 -101 -244.5t-290 -90.5h-237z"/>
<glyph glyph-name="E" horiz-adv-x="577" unicode="E" d="M37 0v101h75v456h-75v101h491v-188h-108v88h-195v-176h199v-96h-199v-186h196v88h108v-188h-492z"/>
<glyph glyph-name="F" horiz-adv-x="559" unicode="F" d="M37 0v101h75v456h-75v101h485v-188h-108v88h-189v-188h194v-97h-194v-172h87v-101h-275z"/>
<glyph glyph-name="G" horiz-adv-x="726" unicode="G" d="M362 -12q-128 0 -222 93.5t-94 245.5q0 150 100 246.5t246 96.5q110 0 182.5 -48.5t72.5 -110.5q0 -36 -20.5 -58.5t-51.5 -22.5q-34 0 -55 19.5t-21 51.5q0 20 7 34q-38 30 -117 30q-97 0 -161.5 -66t-64.5 -171t64.5 -171.5t151.5 -66.5q94 0 159 42v113h-164v96h275 v-341h-108v49q-78 -61 -179 -61z"/>
<glyph glyph-name="H" horiz-adv-x="754" unicode="H" d="M37 0v101h75v456h-75v101h270v-101h-82v-174h304v174h-82v101h270v-101h-75v-456h75v-101h-270v101h82v183h-304v-183h82v-101h-270z"/>
<glyph glyph-name="I" horiz-adv-x="347" unicode="I" d="M37 0v101h80v456h-80v101h273v-101h-80v-456h80v-101h-273z"/>
<glyph glyph-name="J" horiz-adv-x="540" unicode="J" d="M233 -12q-86 0 -146 48t-60 118q0 39 21 62.5t54 23.5q28 0 47.5 -19.5t19.5 -47.5q0 -31 -23 -50q21 -33 87 -33q44 0 67 23q31 31 31 104v340h-99v101h281v-101h-72v-340q0 -115 -59 -174q-55 -55 -149 -55z"/>
<glyph glyph-name="K" horiz-adv-x="681" unicode="K" d="M37 0v101h75v456h-75v101h270v-99h-82v-223l221 223h-75v99h290v-101h-71l-184 -181l168 -275h87v-101h-158l-183 300l-95 -93v-106h82v-101h-270z"/>
<glyph glyph-name="L" horiz-adv-x="548" unicode="L" d="M37 0v101h75v456h-75v101h275v-101h-87v-457h181v93h109v-193h-478z"/>
<glyph glyph-name="M" horiz-adv-x="862" unicode="M" d="M32 0v101h78l21 456h-82v101h180l202 -366l202 366h179v-101h-82l21 -456h78v-101h-270v101h79l-13 339l-188 -330h-15l-188 330l-13 -339h79v-101h-268z"/>
<glyph glyph-name="N" horiz-adv-x="743" unicode="N" d="M581 -3l-359 457v-353h82v-101h-267v101h75v456h-75v101h171l324 -413v312h-82v101h264v-101h-72v-558z"/>
<glyph glyph-name="O" d="M384 93q96 0 158 66.5t62 169.5t-62.5 169.5t-157.5 66.5q-96 0 -158.5 -66.5t-62.5 -169.5t62.5 -169.5t158.5 -66.5zM381 -12q-147 0 -241 97.5t-94 243.5t95.5 243.5t244.5 97.5q147 0 241 -97.5t94 -243.5t-95.5 -243.5t-244.5 -97.5z" unicode="O"/>
<glyph glyph-name="P" horiz-adv-x="581" unicode="P" d="M299 317q63 0 99 33.5t36 92.5q0 51 -38.5 82.5t-99.5 31.5h-71v-238q24 -2 74 -2zM37 0v101h75v456h-75v101h265q108 0 178.5 -58.5t70.5 -156.5q0 -110 -71 -167.5t-191 -57.5q-50 0 -64 1v-118h82v-101h-270z"/>
<glyph glyph-name="Q" d="M384 93q96 0 158 66.5t62 169.5t-62.5 169.5t-157.5 66.5q-96 0 -158.5 -66.5t-62.5 -169.5q0 -105 66 -173q61 -63 155 -63zM632 -138q-31 0 -66.5 12t-52 20.5t-57 34.5t-41.5 27q-39 26 -84 34q-114 19 -195 100q-90 90 -90 239q0 146 95.5 243.5t244.5 97.5 q147 0 241 -97.5t94 -243.5q0 -122 -62.5 -203t-155.5 -110q19 -6 36 -16q49 -29 83 -29q45 0 92 35l59 -90q-52 -54 -141 -54z" unicode="Q"/>
<glyph glyph-name="R" horiz-adv-x="620" unicode="R" d="M289 344q65 0 105 30t40 81t-39 76.5t-109 25.5h-61v-211q24 -2 64 -2zM37 0v101h75v456h-75v101h255q118 0 188.5 -51t70.5 -148q0 -62 -34 -109.5t-90 -69.5l101 -179h75v-101h-152l-132 250q-28 -2 -40 -2q-40 0 -54 1v-148h82v-101h-270z"/>
<glyph glyph-name="S" horiz-adv-x="555" unicode="S" d="M275 -12q-96 0 -165.5 46t-69.5 107q0 35 19 56.5t50 21.5q32 0 52 -20t20 -45q0 -22 -9 -40q40 -28 104 -28q55 0 86.5 23.5t31.5 65.5q0 37 -31 60t-90 43q-109 39 -158.5 80.5t-49.5 124.5q0 80 60 133.5t158 53.5q92 0 155 -41.5t63 -100.5q0 -34 -19 -54t-48 -20 q-33 0 -52.5 20t-19.5 47q0 17 7 31q-33 20 -87 20q-48 0 -75.5 -22t-27.5 -59t30.5 -58.5t90.5 -43.5q52 -18 83.5 -33t63 -38.5t46 -56.5t14.5 -77q0 -92 -64 -144t-168 -52z"/>
<glyph glyph-name="T" horiz-adv-x="617" unicode="T" d="M170 0v101h82v459h-122v-104h-107v202h571v-202h-107v104h-122v-459h82v-101h-277z"/>
<glyph glyph-name="U" horiz-adv-x="692" unicode="U" d="M347 -12q-114 0 -181 64t-67 188v317h-72v101h264v-101h-79v-311q0 -75 35.5 -115t99.5 -40q65 0 100.5 38t35.5 113v315h-79v101h261v-101h-72v-315q0 -125 -66.5 -189.5t-179.5 -64.5z"/>
<glyph glyph-name="V" horiz-adv-x="688" unicode="V" d="M312 -7l-239 564h-60v101h260v-101h-69l142 -361l142 361h-73v101h260v-101h-60l-239 -564h-64z"/>
<glyph glyph-name="W" horiz-adv-x="1022" unicode="W" d="M273 -7l-180 564h-70v101h280v-101h-87l107 -346l163 383h60l163 -383l100 346h-90v101h280v-101h-70l-177 -564h-63l-176 405l-177 -405h-63z"/>
<glyph glyph-name="X" horiz-adv-x="707" unicode="X" d="M24 0v101h71l195 238l-178 218h-75v101h275v-99h-69l116 -158l117 158h-77v99h275v-101h-75l-177 -216l190 -240h71v-101h-270v99h68l-128 179l-134 -179h75v-99h-270z"/>
<glyph glyph-name="Y" horiz-adv-x="645" unicode="Y" d="M183 0v101h83v150l-187 306h-66v101h249v-101h-58l121 -211l120 211h-62v101h249v-101h-66l-187 -306v-150h83v-101h-279z"/>
<glyph glyph-name="Z" horiz-adv-x="625" unicode="Z" d="M44 0v64l372 499h-256v-110h-96v205h511v-64l-372 -499h283v110h95v-205h-537z"/>
<glyph glyph-name="bracketleft" horiz-adv-x="381" unicode="[" d="M91 -200v932h260v-94h-155v-743h155v-95h-260z"/>
<glyph glyph-name="backslash" horiz-adv-x="510" unicode="\" d="M415 -213l-409 920l89 40l409 -920z"/>
<glyph glyph-name="bracketright" horiz-adv-x="381" unicode="]" d="M30 -200v95h155v743h-155v94h260v-932h-260z"/>
<glyph glyph-name="asciicircum" horiz-adv-x="460" unicode="^" d="M102 322l-49 56l177 176l177 -176l-49 -56l-128 84z"/>
<glyph glyph-name="underscore" horiz-adv-x="572" unicode="_" d="M-8 -167v102h588v-102h-588z"/>
<glyph glyph-name="grave" horiz-adv-x="234" unicode="`" d="M200 491l-149 108q-31 24 -31 55q0 22 14.5 36.5t34.5 14.5q31 0 55 -31l110 -150z"/>
<glyph glyph-name="a" horiz-adv-x="509" unicode="a" d="M212 71q56 0 110 39v69q-42 10 -90 10q-40 0 -62.5 -17t-22.5 -47q0 -26 17.5 -40t47.5 -14zM177 -8q-60 0 -101 32t-41 91q0 61 48.5 96.5t127.5 35.5q63 0 111 -12v35q0 38 -17 60q-25 32 -86 32q-25 0 -43 -7q4 -12 4 -22q0 -25 -17 -41t-42 -16t-41.5 16t-16.5 43 q0 45 45 78t129 33q109 0 157 -59q34 -41 34 -110v-187h65v-90h-169v48q-65 -56 -147 -56z"/>
<glyph glyph-name="b" horiz-adv-x="548" unicode="b" d="M286 86q48 0 82 36t34 98q0 61 -33 96.5t-83 35.5q-53 0 -104 -44v-188q49 -34 104 -34zM304 -8q-71 0 -133 50l-24 -44h-74v642h-66v92h175v-342q58 56 129 56q88 0 145.5 -63.5t57.5 -161.5q0 -96 -61 -162.5t-149 -66.5z"/>
<glyph glyph-name="c" horiz-adv-x="499" unicode="c" d="M276 -8q-105 0 -173.5 63.5t-68.5 167.5q0 88 63.5 155.5t158.5 67.5q86 0 142.5 -46t56.5 -101q0 -34 -20 -54t-50 -20q-27 0 -46.5 19.5t-19.5 46.5q0 21 14 37q-22 30 -78 30q-43 0 -77.5 -35.5t-34.5 -101.5q0 -61 41 -99t101 -38q71 0 156 46l-9 -98 q-70 -40 -156 -40z"/>
<glyph glyph-name="d" horiz-adv-x="561" unicode="d" d="M262 86q53 0 104 44v188q-49 34 -104 34q-48 0 -82 -36t-34 -98q0 -61 33 -96.5t83 -35.5zM237 -8q-88 0 -145.5 63.5t-57.5 161.5q0 96 61 162.5t149 66.5q72 0 122 -42v236h-66v92h175v-642h65v-90h-174v48q-58 -56 -129 -56z"/>
<glyph glyph-name="e" horiz-adv-x="500" unicode="e" d="M255 358q-39 0 -69.5 -24.5t-38.5 -75.5h213q-2 46 -30 73t-75 27zM464 182h-316q22 -98 144 -98q78 0 159 46l-9 -98q-68 -40 -166 -40q-108 0 -175 62t-67 164q0 96 61.5 162t160.5 66q101 0 157 -59.5t56 -150.5q0 -29 -5 -54z"/>
<glyph glyph-name="f" horiz-adv-x="342" unicode="f" d="M319 604q-42 0 -63 41q-16 -7 -23 -18q-20 -29 -20 -88v-101h114v-92h-114v-256h85v-90h-259v90h66v256h-75v92h75v85q0 61 12.5 101t43.5 70q48 46 120 46q43 0 70 -20.5t27 -53.5q0 -28 -17.5 -45t-41.5 -17z"/>
<glyph glyph-name="g" horiz-adv-x="557" unicode="g" d="M262 352q-52 0 -84 -33t-32 -94q0 -59 32 -91.5t84 -32.5t98 43v174q-44 34 -98 34zM469 346v-347q0 -82 -41 -132q-55 -67 -164 -67q-55 0 -101.5 15.5t-70.5 39.5t-24 57q0 24 16.5 42.5t42.5 18.5t43.5 -16t17.5 -41q0 -9 -2 -17q33 -11 65 -11q61 0 89 38 q20 28 20 76v63q-56 -56 -126 -56q-85 0 -142.5 59.5t-57.5 155.5q0 93 59.5 157.5t145.5 64.5q70 0 125 -47v39h170v-92h-65z"/>
<glyph glyph-name="h" horiz-adv-x="566" unicode="h" d="M91 640h-65v92h174v-360q78 74 149 74t107 -47q29 -38 29 -99v-210h65v-90h-234v90h60v183q0 34 -14 53q-16 21 -49 21q-51 0 -113 -51v-206h60v-90h-234v90h65v550z"/>
<glyph glyph-name="i" horiz-adv-x="305" unicode="i" d="M32 0v90h67v256h-67v92h176v-348h65v-90h-241zM142 505q-29 0 -50.5 21t-21.5 51t22 51t52 21q29 0 50.5 -21t21.5 -51t-22 -51t-52 -21z"/>
<glyph glyph-name="j" horiz-adv-x="296" unicode="j" d="M160 505q-29 0 -50.5 21t-21.5 51t22 51t52 21q29 0 50.5 -21t21.5 -51t-22 -51t-52 -21zM-49 -121q0 25 17.5 43t42.5 18q23 0 39 -15t20 -38q31 7 45 45q10 29 10 69v345h-82v92h191v-431q0 -71 -25 -119q-44 -88 -151 -88q-52 0 -79.5 23.5t-27.5 55.5z"/>
<glyph glyph-name="k" horiz-adv-x="552" unicode="k" d="M26 0v90h65v550h-65v92h174v-491l128 110h-61v87h259v-92h-81l-102 -86l111 -168h72v-92h-137l-126 197l-63 -53v-56h55v-88h-229z"/>
<glyph glyph-name="l" horiz-adv-x="295" unicode="l" d="M26 0v90h68v550h-68v92h177v-642h65v-90h-242z"/>
<glyph glyph-name="m" horiz-adv-x="836" unicode="m" d="M31 0v90h65v256h-65v92h170v-69q71 77 147 77q68 0 104 -47q7 -9 14 -25q74 72 146 72q91 0 125 -63q18 -33 18 -82v-211h65v-90h-233v90h59v185q0 26 -7 41q-13 31 -52 31q-49 0 -107 -49v-208h59v-90h-228v90h60v185q0 26 -7 41q-13 31 -52 31q-49 0 -107 -49v-208h58 v-90h-232z"/>
<glyph glyph-name="n" horiz-adv-x="571" unicode="n" d="M201 438v-70q80 78 153 78q76 0 113 -56q23 -37 23 -90v-210h65v-90h-234v90h60v183q0 29 -9 45q-15 29 -54 29q-51 0 -113 -51v-206h60v-90h-234v90h65v256h-65v92h170z"/>
<glyph glyph-name="o" horiz-adv-x="534" unicode="o" d="M267 83q53 0 87 38t34 98t-34 98t-87 38t-87 -38t-34 -98t34 -98t87 -38zM267 -8q-105 0 -169 66t-64 161q0 93 64.5 160t168.5 67q105 0 169 -66t64 -161q0 -93 -64.5 -160t-168.5 -67z"/>
<glyph glyph-name="p" horiz-adv-x="560" unicode="p" d="M302 86q46 0 79 36t33 98q0 61 -32 96.5t-80 35.5q-53 0 -102 -44v-188q48 -34 102 -34zM26 -196v90h65v452h-65v92h170v-50q62 58 130 58q86 0 143 -63.5t57 -161.5q0 -95 -60 -162t-147 -67q-64 0 -119 42v-140h71v-90h-245z"/>
<glyph glyph-name="q" horiz-adv-x="532" unicode="q" d="M262 86q53 0 104 44v188q-49 34 -104 34q-48 0 -82 -36t-34 -98q0 -61 33 -96.5t83 -35.5zM287 -196v92h79v152q-58 -56 -129 -56q-88 0 -145.5 63.5t-57.5 161.5q0 96 61 162.5t149 66.5q71 0 133 -50l24 45h74v-545h66v-92h-254z"/>
<glyph glyph-name="r" horiz-adv-x="435" unicode="r" d="M340 446q39 0 60 -20.5t21 -51.5q0 -28 -19 -48t-46 -20q-46 0 -64 39q-23 -8 -47.5 -31.5t-39.5 -51.5v-172h76v-90h-250v90h65v256h-65v92h170v-99q67 107 139 107z"/>
<glyph glyph-name="s" horiz-adv-x="458" unicode="s" d="M406 341q0 -26 -15 -42.5t-39 -16.5q-26 0 -42.5 14.5t-16.5 39.5q0 13 2 19q-28 11 -62 11q-35 0 -54 -13t-19 -32q0 -18 20 -30t72 -26q88 -24 127 -51t39 -82q0 -66 -53.5 -103.5t-131.5 -37.5q-50 0 -98 15.5t-70 37.5q-25 25 -25 59q0 24 16.5 41.5t41.5 17.5 q24 0 41.5 -15.5t17.5 -42.5q0 -6 -2 -18q35 -14 79 -14q35 0 57.5 12t22.5 35q0 17 -18 28.5t-68 24.5q-95 25 -133.5 53.5t-38.5 82.5q0 56 46.5 97.5t132.5 41.5q41 0 83 -14t64 -36q24 -24 24 -56z"/>
<glyph glyph-name="t" horiz-adv-x="369" unicode="t" d="M227 -8q-87 0 -118 60q-15 27 -15 69v225h-85v92h85v92l108 47v-139h133v-92h-133v-204q0 -19 7 -32q12 -21 46 -21q36 0 86 23l-9 -94q-52 -26 -105 -26z"/>
<glyph glyph-name="u" horiz-adv-x="566" unicode="u" d="M217 -8q-79 0 -114 58q-22 36 -22 88v208h-65v92h174v-273q0 -27 9 -45q15 -29 54 -29q51 0 113 51v204h-68v92h177v-348h65v-90h-170v70q-80 -78 -153 -78z"/>
<glyph glyph-name="v" horiz-adv-x="538" unicode="v" d="M230 -8l-174 354h-51v92h224v-87h-63l105 -228l105 228h-66v87h223v-92h-51l-174 -354h-78z"/>
<glyph glyph-name="w" horiz-adv-x="726" unicode="w" d="M177 -17l-108 363h-64v92h225v-90h-62l60 -215l103 260h75l102 -260l60 215h-72v90h225v-92h-64l-108 -363h-77l-109 268l-109 -268h-77z"/>
<glyph glyph-name="x" horiz-adv-x="535" unicode="x" d="M12 0v92h58l136 129l-132 125h-52v92h221v-86h-55l81 -85l80 85h-56v86h217v-92h-54l-128 -122l139 -132h56v-92h-221v86h51l-89 93l-87 -93h52v-86h-217z"/>
<glyph glyph-name="y" horiz-adv-x="532" unicode="y" d="M235 -142q-49 -57 -116 -57q-42 0 -68 20.5t-26 48.5q0 27 15.5 41.5t38.5 14.5q34 0 48 -33q19 5 35 26q8 11 20 34l33 69l-156 324h-54v92h226v-87h-64l101 -231l102 231h-68v87h225v-92h-53l-205 -435q-16 -33 -34 -53z"/>
<glyph glyph-name="z" horiz-adv-x="463" unicode="z" d="M29 0v64l264 288h-155v-81h-93v167h384v-63l-264 -288h177v81h92v-168h-405z"/>
<glyph glyph-name="braceleft" horiz-adv-x="388" unicode="{" d="M343 -217q-141 4 -205.5 47.5t-64.5 115.5q0 45 21 77.5t61 66.5q23 21 33 35t10 33q0 26 -27.5 43t-82.5 17h-29v92h29q55 0 82.5 17t27.5 43q0 19 -10 33t-33 35q-40 34 -61 66.5t-21 77.5q0 72 64.5 115.5t205.5 47.5v-83q-167 -10 -167 -81q0 -28 59 -87 q38 -38 57 -67t19 -61q0 -41 -32.5 -67t-88.5 -35q56 -9 88.5 -35t32.5 -67q0 -32 -19 -61t-57 -67q-59 -59 -59 -87q0 -71 167 -81v-83z"/>
<glyph glyph-name="bar" horiz-adv-x="284" unicode="|" d="M95 -200v932h94v-932h-94z"/>
<glyph glyph-name="braceright" horiz-adv-x="388" unicode="}" d="M45 -217v83q167 10 167 81q0 28 -59 87q-38 38 -57 67t-19 61q0 41 32.5 67t88.5 35q-56 9 -88.5 35t-32.5 67q0 32 19 61t57 67q59 59 59 87q0 71 -167 81v83q141 -4 205.5 -47.5t64.5 -115.5q0 -45 -21 -77.5t-61 -66.5q-23 -21 -33 -35t-10 -33q0 -26 27.5 -43 t82.5 -17h29v-92h-29q-55 0 -82.5 -17t-27.5 -43q0 -19 10 -33t33 -35q40 -34 61 -66.5t21 -77.5q0 -72 -64.5 -115.5t-205.5 -47.5z"/>
<glyph glyph-name="asciitilde" horiz-adv-x="460" unicode="~" d="M308 184q-48 0 -89 37q-37 33 -60 33q-36 0 -52 -64l-74 19q8 70 42 110.5t77 40.5q48 0 89 -37q37 -33 60 -33q36 0 52 64l74 -19q-8 -70 -42 -110.5t-77 -40.5z"/>
<glyph glyph-name="uni00A0" horiz-adv-x="220" unicode=" "/>
<glyph glyph-name="exclamdown" horiz-adv-x="278" unicode="¡" d="M70 0l39 458h60l39 -458h-138zM139 516q-31 0 -52.5 22t-21.5 53t21.5 52.5t52.5 21.5t52.5 -21.5t21.5 -52.5t-21.5 -53t-52.5 -22z"/>
<glyph glyph-name="cent" horiz-adv-x="549" unicode="¢" d="M151 266q0 -40 20.5 -74t57.5 -52l24 264q-46 -10 -74 -45.5t-28 -92.5zM495 349q0 -33 -20 -52t-47 -19q-26 0 -44 18t-18 44q0 21 14 41q-23 19 -55 24l-26 -281h8q89 0 174 46l-8 -93q-70 -40 -177 -40h-2l-13 -144l-80 7l14 147q-81 21 -126 81t-45 140 q0 82 60 146.5t154 74.5l9 102l80 -7l-9 -98q68 -13 112.5 -53t44.5 -84z"/>
<glyph glyph-name="sterling" horiz-adv-x="548" unicode="£" d="M422 111h-166v-5q0 -62 -39 -108q45 0 83 -11q66 -19 91 -19q29 0 45.5 13.5t37.5 50.5l69 -38q-21 -68 -56 -95t-94 -27q-49 0 -118 25q-61 22 -106 22q-31 -47 -89 -47q-28 0 -47 16t-19 38q0 32 27.5 55t72.5 23q10 0 16 -1q28 46 28 100v8h-116v84h103q-1 2 -3.5 8.5 t-3.5 10.5q-34 83 -34 128q0 80 55 135t149 55q74 0 124.5 -37t50.5 -92q0 -34 -19 -53t-45 -19q-25 0 -43 17.5t-18 43.5q0 14 8 32q-17 17 -60 17q-48 0 -73 -30t-25 -68q0 -50 26 -118l10 -30h178v-84z"/>
<glyph glyph-name="yen" horiz-adv-x="543" unicode="¥" d="M73 249v82h86l-73 112h-69v82h223v-80h-59l90 -148l90 148h-63v80h223v-82h-69l-73 -112h86v-82h-139l-10 -15v-27h149v-82h-149v-45h88v-80h-270v80h88v45h-149v82h149v27l-10 15h-139z"/>
<glyph glyph-name="section" horiz-adv-x="465" unicode="§" d="M228 225q12 -4 36 -10q53 12 53 40q0 14 -21 23.5t-57 19.5q-5 1 -8 2l-35 10q-55 -13 -55 -41q0 -21 87 -44zM234 533q69 0 113.5 -25t44.5 -67q0 -21 -15.5 -35.5t-39.5 -14.5t-39.5 13t-15.5 33q0 10 3 13q-17 10 -57 10q-54 0 -54 -28q0 -9 6.5 -16t20 -13.5 t24.5 -10t31 -9.5t28 -9q31 -10 43 -14.5t33.5 -15t30 -19t16 -23t7.5 -31.5q0 -58 -73 -88q45 -30 45 -79t-43.5 -80.5t-117.5 -31.5q-65 0 -111.5 23.5t-46.5 68.5q0 21 15.5 35.5t39.5 14.5q23 0 39 -13t16 -33q0 -11 -3 -14q15 -9 56 -9q54 0 54 30q0 8 -5.5 14.5 t-18.5 12t-23.5 9t-32 9.5t-32.5 10q-30 9 -49 16.5t-39.5 20t-31 29.5t-10.5 38q0 62 78 87q-49 30 -49 80q0 46 45.5 79t117.5 33z"/>
<glyph glyph-name="dieresis" horiz-adv-x="382" unicode="¨" d="M87 505q-29 0 -50.5 21t-21.5 51t22 51t52 21q29 0 50.5 -21t21.5 -51t-22 -51t-52 -21zM293 505q-29 0 -50.5 21t-21.5 51t22 51t52 21q29 0 50.5 -21t21.5 -51t-22 -51t-52 -21z"/>
<glyph glyph-name="copyright" horiz-adv-x="620" unicode="©" d="M307 357q-37 0 -62 -25.5t-25 -64.5t24.5 -65t64.5 -26q41 0 73 32l27 -29q-36 -47 -101 -47q-60 0 -98 36.5t-38 96.5q0 58 39 96t96 38q43 0 71.5 -19t28.5 -44q0 -13 -8.5 -22t-21.5 -9q-11 0 -19.5 8.5t-8.5 19.5q0 7 3 12q-16 12 -45 12zM300 38q90 0 154 65.5 t64 158.5q0 95 -63 160t-155 65t-155 -65t-63 -160t63 -159.5t155 -64.5zM300 -8q-113 0 -191.5 78.5t-78.5 191.5t78.5 192t191.5 79t191.5 -79t78.5 -192q0 -112 -79 -191t-191 -79z"/>
<glyph glyph-name="ordfeminine" horiz-adv-x="356" unicode="ª" d="M137 447q33 0 66 23v41q-22 6 -54 6q-51 0 -51 -38q0 -32 39 -32zM39 282v60h267v-60h-267zM116 399q-36 0 -60.5 19.5t-24.5 54.5q0 36 29 57.5t76 21.5q42 0 67 -7v20q0 29 -17 43q-16 12 -45 12q-15 0 -27 -4q3 -6 3 -14q0 -15 -10 -24.5t-25 -9.5t-24.5 10t-9.5 26 q0 26 27 46t77 20q48 0 77 -19q38 -25 38 -82v-111h39v-54h-102v29q-40 -34 -88 -34z"/>
<glyph glyph-name="guillemotleft" horiz-adv-x="567" unicode="«" d="M223 91l-199 191l199 191l65 -65l-122 -126l122 -126zM465 91l-199 191l199 191l65 -65l-122 -126l122 -126z"/>
<glyph glyph-name="registered" horiz-adv-x="406" unicode="®" d="M188 524h14q30 0 30 22t-31 22h-13v-44zM136 434v31h17v103h-17v31h67q30 0 49 -13t19 -37q0 -31 -29 -45l19 -39h18v-31h-43l-28 60h-20v-29h17v-31h-69zM203 656q-58 0 -99 -41t-41 -102q0 -59 41 -99.5t99 -40.5t99 40.5t41 99.5q0 61 -41 102t-99 41zM203 336 q-75 0 -127.5 51.5t-52.5 126.5t52.5 127t127.5 52t127.5 -52t52.5 -127t-52.5 -126.5t-127.5 -51.5z"/>
<glyph glyph-name="macron" horiz-adv-x="364" unicode="¯" d="M15 524v89h334v-89h-334z"/>
<glyph glyph-name="degree" horiz-adv-x="308" unicode="°" d="M154 466q28 0 48 20t20 48t-20 48t-48 20t-48 -20t-20 -48t20 -48t48 -20zM154 398q-56 0 -96 40t-40 96t40 96t96 40t96 -40t40 -96t-40 -96t-96 -40z"/>
<glyph glyph-name="plusminus" horiz-adv-x="464" unicode="±" d="M52 17v92h360v-92h-360zM186 191v134h-134v92h134v134h92v-134h134v-92h-134v-134h-92z"/>
<glyph glyph-name="two.sup" horiz-adv-x="353" unicode="²" d="M53 430l-21 33q17 40 47 75t48 49t49 35q22 15 30 21t17.5 19t9.5 28q0 23 -17 36t-46 13q-18 0 -35.5 -6t-23.5 -12q18 -9 18 -34q0 -17 -12 -29t-29 -12q-44 0 -44 53q0 44 36.5 72t95.5 28q54 0 91 -30.5t37 -79.5q0 -27 -14.5 -50t-29 -34t-38.5 -25 q-75 -45 -104 -91h138v63h58v-122h-261z"/>
<glyph glyph-name="three.sup" horiz-adv-x="353" unicode="³" d="M171 423q-60 0 -99 25t-39 65q0 19 12.5 32.5t30.5 13.5t30 -12t12 -29q0 -13 -5 -25q22 -14 58 -14q27 0 46.5 13.5t19.5 38.5q0 23 -19.5 39.5t-66.5 16.5h-22v55h23q78 0 78 57q0 20 -17.5 30.5t-41.5 10.5q-26 0 -41 -10q4 -12 4 -23q0 -17 -12.5 -29.5t-29.5 -12.5 q-18 0 -30.5 14t-12.5 35q0 28 33.5 55t91.5 27q54 0 92 -27t38 -68q0 -31 -21 -54t-54 -32q33 -9 57.5 -31.5t24.5 -59.5q0 -47 -41 -74t-99 -27z"/>
<glyph glyph-name="acute" horiz-adv-x="234" unicode="´" d="M34 491l-34 33l110 150q24 31 55 31q20 0 34.5 -14.5t14.5 -36.5q0 -31 -31 -55z"/>
<glyph glyph-name="paragraph" horiz-adv-x="607" unicode="¶" d="M345 91h58v319h-58v-319zM178 0v93h80v100q-17 -1 -50 -1q-78 0 -127.5 42.5t-49.5 114.5q0 66 51.5 109t128.5 43h365v-95h-86v-311h86v-95h-398z"/>
<glyph glyph-name="periodcentered" horiz-adv-x="256" unicode="·" d="M128 180q-34 0 -58 24t-24 58t24 58.5t58 24.5t58 -24.5t24 -58.5t-24 -58t-58 -24z"/>
<glyph glyph-name="cedilla" horiz-adv-x="240" unicode="¸" d="M125 -200q-68 0 -125 34l17 33q49 -21 88 -21t39 26t-59 26l-11 -1l-21 25l41 100l32 -4l8 -62q48 -6 77 -27t29 -53q0 -30 -31.5 -53t-83.5 -23z"/>
<glyph glyph-name="one.sup" horiz-adv-x="353" unicode="¹" d="M57 431v64h91v224l-82 -21l-16 59l133 37h37v-299h88v-64h-251z"/>
<glyph glyph-name="ordmasculine" horiz-adv-x="348" unicode="º" d="M174 453q32 0 52.5 23t20.5 59t-20.5 59t-52.5 23t-52.5 -23t-20.5 -59t20.5 -59t52.5 -23zM174 399q-63 0 -101.5 39.5t-38.5 96.5q0 56 39 96t101 40q63 0 101.5 -39.5t38.5 -96.5q0 -56 -39 -96t-101 -40zM45 282v60h258v-60h-258z"/>
<glyph glyph-name="guillemotright" horiz-adv-x="567" unicode="»" d="M102 91l-65 65l122 126l-122 126l65 65l199 -191zM344 91l-65 65l122 126l-122 126l65 65l199 -191z"/>
<glyph glyph-name="onequarter" horiz-adv-x="795" unicode="¼" d="M559 0v52h68v52h-162l-23 42l195 231l51 -41l-165 -183h104v58l61 24v-76h55v-58h-55v-47h41v-54h-170zM238 -16l-49 32q99 153 200 316q91 146 189 326l49 -32q-85 -131 -200 -316q-98 -159 -189 -326zM48 281v64h91v224l-82 -21l-16 59l133 37h37v-299h88v-64h-251z "/>
<glyph glyph-name="onehalf" horiz-adv-x="795" unicode="½" d="M224 -16l-49 32q99 153 200 316q91 146 189 326l49 -32q-85 -131 -200 -316q-98 -159 -189 -326zM40 281v64h91v224l-82 -21l-16 59l133 37h37v-299h88v-64h-251zM494 -2l-21 33q17 40 47 75t48 49t49 35q22 15 30 21t17.5 19t9.5 28q0 23 -17 36t-46 13q-18 0 -35.5 -6 t-23.5 -12q18 -9 18 -34q0 -17 -12 -29t-29 -12q-44 0 -44 53q0 44 36.5 72t95.5 28q54 0 91 -30.5t37 -79.5q0 -27 -14.5 -50t-29 -34t-38.5 -25q-75 -45 -104 -91h138v63h58v-122h-261z"/>
<glyph glyph-name="threequarters" horiz-adv-x="795" unicode="¾" d="M561 0v52h68v52h-162l-23 42l195 231l51 -41l-165 -183h104v58l61 24v-76h55v-58h-55v-47h41v-54h-170zM248 -16l-49 32q99 153 200 316q91 146 189 326l49 -32q-85 -131 -200 -316q-98 -159 -189 -326zM185 273q-60 0 -99 25t-39 65q0 19 12.5 32.5t30.5 13.5t30 -12 t12 -29q0 -13 -5 -25q22 -14 58 -14q27 0 46.5 13.5t19.5 38.5q0 23 -19.5 39.5t-66.5 16.5h-22v55h23q78 0 78 57q0 20 -17.5 30.5t-41.5 10.5q-26 0 -41 -10q4 -12 4 -23q0 -17 -12.5 -29.5t-29.5 -12.5q-18 0 -30.5 14t-12.5 35q0 28 33.5 55t91.5 27q54 0 92 -27t38 -68 q0 -31 -21 -54t-54 -32q33 -9 57.5 -31.5t24.5 -59.5q0 -47 -41 -74t-99 -27z"/>
<glyph glyph-name="questiondown" horiz-adv-x="489" unicode="¿" d="M266 666q31 0 52.5 -21.5t21.5 -52.5t-21.5 -53t-52.5 -22t-52.5 22t-21.5 53t21.5 52.5t52.5 21.5zM466 141q0 -41 -27 -75q-27 -35 -75 -56.5t-107 -21.5q-99 0 -161 53t-62 133q0 73 46 124t140 69l9 92h75l20 -162q-89 -12 -130 -44.5t-41 -76.5q0 -39 29.5 -65.5 t79.5 -26.5q60 0 87 30q-17 11 -17 42q0 27 15.5 45t43.5 18q30 0 52.5 -21.5t22.5 -56.5z"/>
<glyph glyph-name="Agrave" horiz-adv-x="696" unicode="À" d="M358 716l-149 108q-31 24 -31 55q0 22 14.5 36.5t34.5 14.5q31 0 55 -31l110 -150zM254 302h184l-92 259zM13 0v101h57l164 457h-72v100h372v-100h-72l164 -457h57v-101h-253v100h76l-37 108h-246l-37 -108h80v-100h-253z"/>
<glyph glyph-name="Aacute" horiz-adv-x="696" unicode="Á" d="M336 716l-34 33l110 150q24 31 55 31q20 0 34.5 -14.5t14.5 -36.5q0 -31 -31 -55zM254 302h184l-92 259zM13 0v101h57l164 457h-72v100h372v-100h-72l164 -457h57v-101h-253v100h76l-37 108h-246l-37 -108h80v-100h-253z"/>
<glyph glyph-name="Acircumflex" horiz-adv-x="696" unicode="Â" d="M216 719l-46 53l177 176l177 -176l-46 -53l-131 96zM254 302h184l-92 259zM13 0v101h57l164 457h-72v100h372v-100h-72l164 -457h57v-101h-253v100h76l-37 108h-246l-37 -108h80v-100h-253z"/>
<glyph glyph-name="Atilde" horiz-adv-x="696" unicode="Ã" d="M427 731q-48 0 -89 37q-37 33 -60 33q-36 0 -52 -64l-74 19q8 70 42 110.5t77 40.5q48 0 89 -37q37 -33 60 -33q36 0 52 64l74 -19q-8 -70 -42 -110.5t-77 -40.5zM254 302h184l-92 259zM13 0v101h57l164 457h-72v100h372v-100h-72l164 -457h57v-101h-253v100h76l-37 108 h-246l-37 -108h80v-100h-253z"/>
<glyph glyph-name="Adieresis" horiz-adv-x="696" unicode="Ä" d="M243 730q-29 0 -50.5 21t-21.5 51t22 51t52 21q29 0 50.5 -21t21.5 -51t-22 -51t-52 -21zM449 730q-29 0 -50.5 21t-21.5 51t22 51t52 21q29 0 50.5 -21t21.5 -51t-22 -51t-52 -21zM254 302h184l-92 259zM13 0v101h57l164 457h-72v100h372v-100h-72l164 -457h57v-101 h-253v100h76l-37 108h-246l-37 -108h80v-100h-253z"/>
<glyph glyph-name="Aring" horiz-adv-x="696" unicode="Å" d="M348 674q23 0 37.5 17.5t14.5 41.5t-14.5 41.5t-37.5 17.5t-37.5 -17.5t-14.5 -41.5t14.5 -41.5t37.5 -17.5zM254 302h184l-92 259zM482 740q0 -47 -35 -82h87v-100h-72l164 -457h57v-101h-253v100h76l-37 108h-246l-37 -108h80v-100h-253v101h57l164 457h-72v100h89 q-37 37 -37 82q0 52 39 87.5t95 35.5t95 -35.5t39 -87.5z"/>
<glyph glyph-name="AE" horiz-adv-x="914" unicode="Æ" d="M291 302h158v259h-37zM3 0v101h83l220 456h-83v101h642v-188h-108v88h-195v-176h199v-96h-199v-186h196v88h108v-188h-492v101h75v107h-202l-51 -108h70v-100h-263z"/>
<glyph glyph-name="Ccedilla" horiz-adv-x="702" unicode="Ç" d="M394 -12q-2 0 -6 0.5t-6 0.5l4 -33q48 -6 77 -27t29 -53q0 -30 -31.5 -53t-83.5 -23q-68 0 -125 34l17 33q49 -21 88 -21t39 26t-59 26l-11 -1l-21 25l29 70q-130 18 -209 109t-79 228q0 147 100 244t246 97q110 0 182.5 -48.5t72.5 -110.5q0 -36 -20.5 -58.5 t-51.5 -22.5q-34 0 -55 19.5t-21 51.5q0 20 7 34q-38 30 -117 30q-97 0 -161.5 -66.5t-64.5 -168.5q0 -101 64.5 -169t166.5 -68q109 0 189 87l75 -78q-49 -54 -117.5 -84t-146.5 -30z"/>
<glyph glyph-name="Egrave" horiz-adv-x="577" unicode="È" d="M303 716l-149 108q-31 24 -31 55q0 22 14.5 36.5t34.5 14.5q31 0 55 -31l110 -150zM37 0v101h75v456h-75v101h491v-188h-108v88h-195v-176h199v-96h-199v-186h196v88h108v-188h-492z"/>
<glyph glyph-name="Eacute" horiz-adv-x="577" unicode="É" d="M281 716l-34 33l110 150q24 31 55 31q20 0 34.5 -14.5t14.5 -36.5q0 -31 -31 -55zM37 0v101h75v456h-75v101h491v-188h-108v88h-195v-176h199v-96h-199v-186h196v88h108v-188h-492z"/>
<glyph glyph-name="Ecircumflex" horiz-adv-x="577" unicode="Ê" d="M161 719l-46 53l177 176l177 -176l-46 -53l-131 96zM37 0v101h75v456h-75v101h491v-188h-108v88h-195v-176h199v-96h-199v-186h196v88h108v-188h-492z"/>
<glyph glyph-name="Edieresis" horiz-adv-x="577" unicode="Ë" d="M188 730q-29 0 -50.5 21t-21.5 51t22 51t52 21q29 0 50.5 -21t21.5 -51t-22 -51t-52 -21zM394 730q-29 0 -50.5 21t-21.5 51t22 51t52 21q29 0 50.5 -21t21.5 -51t-22 -51t-52 -21zM37 0v101h75v456h-75v101h491v-188h-108v88h-195v-176h199v-96h-199v-186h196v88h108 v-188h-492z"/>
<glyph glyph-name="Igrave" horiz-adv-x="347" unicode="Ì" d="M184 716l-149 108q-31 24 -31 55q0 22 14.5 36.5t34.5 14.5q31 0 55 -31l110 -150zM37 0v101h80v456h-80v101h273v-101h-80v-456h80v-101h-273z"/>
<glyph glyph-name="Iacute" horiz-adv-x="347" unicode="Í" d="M162 716l-34 33l110 150q24 31 55 31q20 0 34.5 -14.5t14.5 -36.5q0 -31 -31 -55zM37 0v101h80v456h-80v101h273v-101h-80v-456h80v-101h-273z"/>
<glyph glyph-name="Icircumflex" horiz-adv-x="347" unicode="Î" d="M42 719l-46 53l177 176l177 -176l-46 -53l-131 96zM37 0v101h80v456h-80v101h273v-101h-80v-456h80v-101h-273z"/>
<glyph glyph-name="Idieresis" horiz-adv-x="347" unicode="Ï" d="M69 730q-29 0 -50.5 21t-21.5 51t22 51t52 21q29 0 50.5 -21t21.5 -51t-22 -51t-52 -21zM275 730q-29 0 -50.5 21t-21.5 51t22 51t52 21q29 0 50.5 -21t21.5 -51t-22 -51t-52 -21zM37 0v101h80v456h-80v101h273v-101h-80v-456h80v-101h-273z"/>
<glyph glyph-name="Eth" horiz-adv-x="721" unicode="Ð" d="M235 101h65q125 0 191.5 62.5t66.5 170.5q0 107 -71 165t-195 58h-57v-175h137v-91h-137v-190zM122 291h-85v91h85v175h-75v101h249q174 0 276.5 -88.5t102.5 -234.5q0 -154 -99 -244.5t-282 -90.5h-247v101h75v190z"/>
<glyph glyph-name="Ntilde" horiz-adv-x="743" unicode="Ñ" d="M451 731q-48 0 -89 37q-37 33 -60 33q-36 0 -52 -64l-74 19q8 70 42 110.5t77 40.5q48 0 89 -37q37 -33 60 -33q36 0 52 64l74 -19q-8 -70 -42 -110.5t-77 -40.5zM581 -3l-359 457v-353h82v-101h-267v101h75v456h-75v101h171l324 -413v312h-82v101h264v-101h-72v-558z "/>
<glyph glyph-name="Ograve" d="M394 716l-149 108q-31 24 -31 55q0 22 14.5 36.5t34.5 14.5q31 0 55 -31l110 -150zM384 93q96 0 158 66.5t62 169.5t-62.5 169.5t-157.5 66.5q-96 0 -158.5 -66.5t-62.5 -169.5t62.5 -169.5t158.5 -66.5zM381 -12q-147 0 -241 97.5t-94 243.5t95.5 243.5t244.5 97.5 q147 0 241 -97.5t94 -243.5t-95.5 -243.5t-244.5 -97.5z" unicode="Ò"/>
<glyph glyph-name="Oacute" d="M372 716l-34 33l110 150q24 31 55 31q20 0 34.5 -14.5t14.5 -36.5q0 -31 -31 -55zM384 93q96 0 158 66.5t62 169.5t-62.5 169.5t-157.5 66.5q-96 0 -158.5 -66.5t-62.5 -169.5t62.5 -169.5t158.5 -66.5zM381 -12q-147 0 -241 97.5t-94 243.5t95.5 243.5t244.5 97.5 q147 0 241 -97.5t94 -243.5t-95.5 -243.5t-244.5 -97.5z" unicode="Ó"/>
<glyph glyph-name="Ocircumflex" d="M252 719l-46 53l177 176l177 -176l-46 -53l-131 96zM384 93q96 0 158 66.5t62 169.5t-62.5 169.5t-157.5 66.5q-96 0 -158.5 -66.5t-62.5 -169.5t62.5 -169.5t158.5 -66.5zM381 -12q-147 0 -241 97.5t-94 243.5t95.5 243.5t244.5 97.5q147 0 241 -97.5t94 -243.5 t-95.5 -243.5t-244.5 -97.5z" unicode="Ô"/>
<glyph glyph-name="Otilde" d="M463 731q-48 0 -89 37q-37 33 -60 33q-36 0 -52 -64l-74 19q8 70 42 110.5t77 40.5q48 0 89 -37q37 -33 60 -33q36 0 52 64l74 -19q-8 -70 -42 -110.5t-77 -40.5zM384 93q96 0 158 66.5t62 169.5t-62.5 169.5t-157.5 66.5q-96 0 -158.5 -66.5t-62.5 -169.5t62.5 -169.5 t158.5 -66.5zM381 -12q-147 0 -241 97.5t-94 243.5t95.5 243.5t244.5 97.5q147 0 241 -97.5t94 -243.5t-95.5 -243.5t-244.5 -97.5z" unicode="Õ"/>
<glyph glyph-name="Odieresis" d="M279 730q-29 0 -50.5 21t-21.5 51t22 51t52 21q29 0 50.5 -21t21.5 -51t-22 -51t-52 -21zM485 730q-29 0 -50.5 21t-21.5 51t22 51t52 21q29 0 50.5 -21t21.5 -51t-22 -51t-52 -21zM384 93q96 0 158 66.5t62 169.5t-62.5 169.5t-157.5 66.5q-96 0 -158.5 -66.5 t-62.5 -169.5t62.5 -169.5t158.5 -66.5zM381 -12q-147 0 -241 97.5t-94 243.5t95.5 243.5t244.5 97.5q147 0 241 -97.5t94 -243.5t-95.5 -243.5t-244.5 -97.5z" unicode="Ö"/>
<glyph glyph-name="multiply" horiz-adv-x="464" unicode="×" d="M333 105l-101 111l-101 -111l-67 67l101 111l-101 111l67 67l101 -111l101 111l67 -67l-101 -111l101 -111z"/>
<glyph glyph-name="Oslash" d="M384 93q96 0 158 66.5t62 169.5q0 81 -37 140l-302 -345q51 -31 119 -31zM163 329q0 -90 43 -150l304 350q-55 36 -126 36q-96 0 -158.5 -66.5t-62.5 -169.5zM381 -12q-103 0 -183 53l-77 -89l-72 64l76 89q-79 95 -79 224q0 146 95.5 243.5t244.5 97.5q106 0 191 -59 l80 93l72 -64l-82 -94q74 -95 74 -217q0 -146 -95.5 -243.5t-244.5 -97.5z" unicode="Ø"/>
<glyph glyph-name="Ugrave" horiz-adv-x="692" unicode="Ù" d="M357 716l-149 108q-31 24 -31 55q0 22 14.5 36.5t34.5 14.5q31 0 55 -31l110 -150zM347 -12q-114 0 -181 64t-67 188v317h-72v101h264v-101h-79v-311q0 -75 35.5 -115t99.5 -40q65 0 100.5 38t35.5 113v315h-79v101h261v-101h-72v-315q0 -125 -66.5 -189.5t-179.5 -64.5z "/>
<glyph glyph-name="Uacute" horiz-adv-x="692" unicode="Ú" d="M335 716l-34 33l110 150q24 31 55 31q20 0 34.5 -14.5t14.5 -36.5q0 -31 -31 -55zM347 -12q-114 0 -181 64t-67 188v317h-72v101h264v-101h-79v-311q0 -75 35.5 -115t99.5 -40q65 0 100.5 38t35.5 113v315h-79v101h261v-101h-72v-315q0 -125 -66.5 -189.5t-179.5 -64.5z "/>
<glyph glyph-name="Ucircumflex" horiz-adv-x="692" unicode="Û" d="M215 719l-46 53l177 176l177 -176l-46 -53l-131 96zM347 -12q-114 0 -181 64t-67 188v317h-72v101h264v-101h-79v-311q0 -75 35.5 -115t99.5 -40q65 0 100.5 38t35.5 113v315h-79v101h261v-101h-72v-315q0 -125 -66.5 -189.5t-179.5 -64.5z"/>
<glyph glyph-name="Udieresis" horiz-adv-x="692" unicode="Ü" d="M242 730q-29 0 -50.5 21t-21.5 51t22 51t52 21q29 0 50.5 -21t21.5 -51t-22 -51t-52 -21zM448 730q-29 0 -50.5 21t-21.5 51t22 51t52 21q29 0 50.5 -21t21.5 -51t-22 -51t-52 -21zM347 -12q-114 0 -181 64t-67 188v317h-72v101h264v-101h-79v-311q0 -75 35.5 -115 t99.5 -40q65 0 100.5 38t35.5 113v315h-79v101h261v-101h-72v-315q0 -125 -66.5 -189.5t-179.5 -64.5z"/>
<glyph glyph-name="Yacute" horiz-adv-x="645" unicode="Ý" d="M311 716l-34 33l110 150q24 31 55 31q20 0 34.5 -14.5t14.5 -36.5q0 -31 -31 -55zM183 0v101h83v150l-187 306h-66v101h249v-101h-58l121 -211l120 211h-62v101h249v-101h-66l-187 -306v-150h83v-101h-279z"/>
<glyph glyph-name="Thorn" horiz-adv-x="581" unicode="Þ" d="M329 253q44 0 74.5 20t30.5 60q0 42 -30 60.5t-75 18.5q-80 0 -104 -2v-155q24 -2 104 -2zM37 0v101h75v456h-75v101h268v-98h-80v-57q14 1 99 1q101 0 164 -41.5t63 -124.5q0 -90 -64.5 -134t-167.5 -44q-80 0 -94 1v-63h80v-98h-268z"/>
<glyph glyph-name="germandbls" horiz-adv-x="615" unicode="ß" d="M429 -8q-80 0 -119 36.5t-39 75.5q0 24 16.5 41.5t41.5 17.5q22 0 40.5 -15t18.5 -39q0 -14 -7 -29q14 -6 38 -6q67 0 67 61q0 19 -11.5 35t-25.5 26t-45 28q-27 15 -43 26t-35.5 29t-29 40.5t-9.5 49.5q0 25 10.5 48t20.5 36t29 32q45 45 45 83q0 33 -25 57t-65 24 q-53 0 -77 -52q-15 -31 -15 -78v-519h-174v90h66v256h-75v92h75v65q0 90 34 148q52 89 172 89q86 0 139 -47t53 -120q0 -29 -11.5 -54.5t-23 -38t-32.5 -32.5q-48 -45 -48 -74q0 -16 16 -30t50 -33q46 -26 71 -43.5t47 -51.5t22 -76q0 -74 -45.5 -111t-116.5 -37z"/>
<glyph glyph-name="agrave" horiz-adv-x="509" unicode="à" d="M263 491l-149 108q-31 24 -31 55q0 22 14.5 36.5t34.5 14.5q31 0 55 -31l110 -150zM212 71q56 0 110 39v69q-42 10 -90 10q-40 0 -62.5 -17t-22.5 -47q0 -26 17.5 -40t47.5 -14zM177 -8q-60 0 -101 32t-41 91q0 61 48.5 96.5t127.5 35.5q63 0 111 -12v35q0 38 -17 60 q-25 32 -86 32q-25 0 -43 -7q4 -12 4 -22q0 -25 -17 -41t-42 -16t-41.5 16t-16.5 43q0 45 45 78t129 33q109 0 157 -59q34 -41 34 -110v-187h65v-90h-169v48q-65 -56 -147 -56z"/>
<glyph glyph-name="aacute" horiz-adv-x="509" unicode="á" d="M241 491l-34 33l110 150q24 31 55 31q20 0 34.5 -14.5t14.5 -36.5q0 -31 -31 -55zM212 71q56 0 110 39v69q-42 10 -90 10q-40 0 -62.5 -17t-22.5 -47q0 -26 17.5 -40t47.5 -14zM177 -8q-60 0 -101 32t-41 91q0 61 48.5 96.5t127.5 35.5q63 0 111 -12v35q0 38 -17 60 q-25 32 -86 32q-25 0 -43 -7q4 -12 4 -22q0 -25 -17 -41t-42 -16t-41.5 16t-16.5 43q0 45 45 78t129 33q109 0 157 -59q34 -41 34 -110v-187h65v-90h-169v48q-65 -56 -147 -56z"/>
<glyph glyph-name="acircumflex" horiz-adv-x="509" unicode="â" d="M121 494l-46 53l177 176l177 -176l-46 -53l-131 96zM212 71q56 0 110 39v69q-42 10 -90 10q-40 0 -62.5 -17t-22.5 -47q0 -26 17.5 -40t47.5 -14zM177 -8q-60 0 -101 32t-41 91q0 61 48.5 96.5t127.5 35.5q63 0 111 -12v35q0 38 -17 60q-25 32 -86 32q-25 0 -43 -7 q4 -12 4 -22q0 -25 -17 -41t-42 -16t-41.5 16t-16.5 43q0 45 45 78t129 33q109 0 157 -59q34 -41 34 -110v-187h65v-90h-169v48q-65 -56 -147 -56z"/>
<glyph glyph-name="atilde" horiz-adv-x="509" unicode="ã" d="M332 506q-48 0 -89 37q-37 33 -60 33q-36 0 -52 -64l-74 19q8 70 42 110.5t77 40.5q48 0 89 -37q37 -33 60 -33q36 0 52 64l74 -19q-8 -70 -42 -110.5t-77 -40.5zM212 71q56 0 110 39v69q-42 10 -90 10q-40 0 -62.5 -17t-22.5 -47q0 -26 17.5 -40t47.5 -14zM177 -8 q-60 0 -101 32t-41 91q0 61 48.5 96.5t127.5 35.5q63 0 111 -12v35q0 38 -17 60q-25 32 -86 32q-25 0 -43 -7q4 -12 4 -22q0 -25 -17 -41t-42 -16t-41.5 16t-16.5 43q0 45 45 78t129 33q109 0 157 -59q34 -41 34 -110v-187h65v-90h-169v48q-65 -56 -147 -56z"/>
<glyph glyph-name="adieresis" horiz-adv-x="509" unicode="ä" d="M148 505q-29 0 -50.5 21t-21.5 51t22 51t52 21q29 0 50.5 -21t21.5 -51t-22 -51t-52 -21zM354 505q-29 0 -50.5 21t-21.5 51t22 51t52 21q29 0 50.5 -21t21.5 -51t-22 -51t-52 -21zM212 71q56 0 110 39v69q-42 10 -90 10q-40 0 -62.5 -17t-22.5 -47q0 -26 17.5 -40 t47.5 -14zM177 -8q-60 0 -101 32t-41 91q0 61 48.5 96.5t127.5 35.5q63 0 111 -12v35q0 38 -17 60q-25 32 -86 32q-25 0 -43 -7q4 -12 4 -22q0 -25 -17 -41t-42 -16t-41.5 16t-16.5 43q0 45 45 78t129 33q109 0 157 -59q34 -41 34 -110v-187h65v-90h-169v48 q-65 -56 -147 -56z"/>
<glyph glyph-name="aring" horiz-adv-x="509" unicode="å" d="M252 557q23 0 37.5 17.5t14.5 41.5t-14.5 41.5t-37.5 17.5t-37.5 -17.5t-14.5 -41.5t14.5 -41.5t37.5 -17.5zM252 486q-56 0 -95 37.5t-39 92.5t39 92.5t95 37.5t95 -37.5t39 -92.5t-39 -92.5t-95 -37.5zM212 71q56 0 110 39v69q-42 10 -90 10q-40 0 -62.5 -17t-22.5 -47 q0 -26 17.5 -40t47.5 -14zM177 -8q-60 0 -101 32t-41 91q0 61 48.5 96.5t127.5 35.5q63 0 111 -12v35q0 38 -17 60q-25 32 -86 32q-25 0 -43 -7q4 -12 4 -22q0 -25 -17 -41t-42 -16t-41.5 16t-16.5 43q0 45 45 78t129 33q109 0 157 -59q34 -41 34 -110v-187h65v-90h-169v48 q-65 -56 -147 -56z"/>
<glyph glyph-name="ae" horiz-adv-x="775" unicode="æ" d="M530 358q-39 0 -69.5 -24.5t-38.5 -75.5h213q-2 46 -30 73t-75 27zM217 71q58 0 119 58q-10 29 -14 53q-56 7 -90 7q-40 0 -62.5 -17t-22.5 -47q0 -54 70 -54zM219 362q-25 0 -43 -7q4 -12 4 -22q0 -25 -17 -41t-42 -16t-41.5 16t-16.5 43q0 45 45 78t129 33 q83 0 124 -51q11 -15 17 -30q56 81 163 81q94 0 148.5 -60t54.5 -150q0 -29 -5 -54h-316q22 -98 144 -98q78 0 159 46l-9 -98q-68 -40 -156 -40q-129 0 -195 85q-37 -41 -89 -63t-90 -22q-67 0 -109.5 32t-42.5 91q0 61 48.5 96.5t127.5 35.5q63 0 111 -12v35q0 39 -17 61 q-24 31 -86 31z"/>
<glyph glyph-name="ccedilla" horiz-adv-x="499" unicode="ç" d="M262 -200q-68 0 -125 34l17 33q49 -21 88 -21t39 26t-59 26l-11 -1l-21 25l31 75q-84 16 -135.5 76t-51.5 150q0 88 63.5 155.5t158.5 67.5q86 0 142.5 -46t56.5 -101q0 -34 -20 -54t-50 -20q-27 0 -46.5 19.5t-19.5 46.5q0 21 14 37q-22 30 -78 30q-43 0 -77.5 -35.5 t-34.5 -101.5q0 -61 41 -99t101 -38q71 0 156 46l-9 -98q-70 -40 -156 -40h-10l5 -36q48 -6 77 -27t29 -53q0 -30 -31.5 -53t-83.5 -23z"/>
<glyph glyph-name="egrave" horiz-adv-x="500" unicode="è" d="M255 358q-39 0 -69.5 -24.5t-38.5 -75.5h213q-2 46 -30 73t-75 27zM270 491l-149 108q-31 24 -31 55q0 22 14.5 36.5t34.5 14.5q31 0 55 -31l110 -150zM464 182h-316q22 -98 144 -98q78 0 159 46l-9 -98q-68 -40 -166 -40q-108 0 -175 62t-67 164q0 96 61.5 162t160.5 66 q101 0 157 -59.5t56 -150.5q0 -29 -5 -54z"/>
<glyph glyph-name="eacute" horiz-adv-x="500" unicode="é" d="M255 358q-39 0 -69.5 -24.5t-38.5 -75.5h213q-2 46 -30 73t-75 27zM248 491l-34 33l110 150q24 31 55 31q20 0 34.5 -14.5t14.5 -36.5q0 -31 -31 -55zM464 182h-316q22 -98 144 -98q78 0 159 46l-9 -98q-68 -40 -166 -40q-108 0 -175 62t-67 164q0 96 61.5 162t160.5 66 q101 0 157 -59.5t56 -150.5q0 -29 -5 -54z"/>
<glyph glyph-name="ecircumflex" horiz-adv-x="500" unicode="ê" d="M255 358q-39 0 -69.5 -24.5t-38.5 -75.5h213q-2 46 -30 73t-75 27zM128 494l-46 53l177 176l177 -176l-46 -53l-131 96zM464 182h-316q22 -98 144 -98q78 0 159 46l-9 -98q-68 -40 -166 -40q-108 0 -175 62t-67 164q0 96 61.5 162t160.5 66q101 0 157 -59.5t56 -150.5 q0 -29 -5 -54z"/>
<glyph glyph-name="edieresis" horiz-adv-x="500" unicode="ë" d="M155 505q-29 0 -50.5 21t-21.5 51t22 51t52 21q29 0 50.5 -21t21.5 -51t-22 -51t-52 -21zM361 505q-29 0 -50.5 21t-21.5 51t22 51t52 21q29 0 50.5 -21t21.5 -51t-22 -51t-52 -21zM255 358q-39 0 -69.5 -24.5t-38.5 -75.5h213q-2 46 -30 73t-75 27zM464 182h-316 q22 -98 144 -98q78 0 159 46l-9 -98q-68 -40 -166 -40q-108 0 -175 62t-67 164q0 96 61.5 162t160.5 66q101 0 157 -59.5t56 -150.5q0 -29 -5 -54z"/>
<glyph glyph-name="igrave" horiz-adv-x="305" unicode="ì" d="M153 491l-149 108q-31 24 -31 55q0 22 14.5 36.5t34.5 14.5q31 0 55 -31l110 -150zM32 0v90h67v256h-67v92h176v-348h65v-90h-241z"/>
<glyph glyph-name="iacute" horiz-adv-x="305" unicode="í" d="M131 491l-34 33l110 150q24 31 55 31q20 0 34.5 -14.5t14.5 -36.5q0 -31 -31 -55zM32 0v90h67v256h-67v92h176v-348h65v-90h-241z"/>
<glyph glyph-name="icircumflex" horiz-adv-x="305" unicode="î" d="M11 494l-46 53l177 176l177 -176l-46 -53l-131 96zM32 0v90h67v256h-67v92h176v-348h65v-90h-241z"/>
<glyph glyph-name="idieresis" horiz-adv-x="305" unicode="ï" d="M38 505q-29 0 -50.5 21t-21.5 51t22 51t52 21q29 0 50.5 -21t21.5 -51t-22 -51t-52 -21zM244 505q-29 0 -50.5 21t-21.5 51t22 51t52 21q29 0 50.5 -21t21.5 -51t-22 -51t-52 -21zM32 0v90h67v256h-67v92h176v-348h65v-90h-241z"/>
<glyph glyph-name="eth" horiz-adv-x="543" unicode="ð" d="M406 208q0 53 -38 90t-96 37t-96 -37t-38 -90t38 -89.5t96 -36.5q56 0 93 34q41 36 41 92zM223 465l-56 66l86 72q-38 28 -81 42q-20 -41 -63 -41q-24 0 -41.5 17t-17.5 45q0 33 26 53.5t65 20.5q43 0 86 -18q52 -21 103 -64l97 81l56 -66l-93 -78q119 -148 119 -341 q0 -136 -77 -206q-62 -56 -160 -56q-105 0 -171.5 62.5t-66.5 154.5q0 91 66 154t167 63q72 0 130 -53q-17 96 -81 171z"/>
<glyph glyph-name="ntilde" horiz-adv-x="571" unicode="ñ" d="M373 506q-48 0 -89 37q-37 33 -60 33q-36 0 -52 -64l-74 19q8 70 42 110.5t77 40.5q48 0 89 -37q37 -33 60 -33q36 0 52 64l74 -19q-8 -70 -42 -110.5t-77 -40.5zM201 438v-70q80 78 153 78q76 0 113 -56q23 -37 23 -90v-210h65v-90h-234v90h60v183q0 29 -9 45 q-15 29 -54 29q-51 0 -113 -51v-206h60v-90h-234v90h65v256h-65v92h170z"/>
<glyph glyph-name="ograve" horiz-adv-x="534" unicode="ò" d="M278 491l-149 108q-31 24 -31 55q0 22 14.5 36.5t34.5 14.5q31 0 55 -31l110 -150zM267 83q53 0 87 38t34 98t-34 98t-87 38t-87 -38t-34 -98t34 -98t87 -38zM267 -8q-105 0 -169 66t-64 161q0 93 64.5 160t168.5 67q105 0 169 -66t64 -161q0 -93 -64.5 -160t-168.5 -67z "/>
<glyph glyph-name="oacute" horiz-adv-x="534" unicode="ó" d="M256 491l-34 33l110 150q24 31 55 31q20 0 34.5 -14.5t14.5 -36.5q0 -31 -31 -55zM267 83q53 0 87 38t34 98t-34 98t-87 38t-87 -38t-34 -98t34 -98t87 -38zM267 -8q-105 0 -169 66t-64 161q0 93 64.5 160t168.5 67q105 0 169 -66t64 -161q0 -93 -64.5 -160t-168.5 -67z "/>
<glyph glyph-name="ocircumflex" horiz-adv-x="534" unicode="ô" d="M136 494l-46 53l177 176l177 -176l-46 -53l-131 96zM267 83q53 0 87 38t34 98t-34 98t-87 38t-87 -38t-34 -98t34 -98t87 -38zM267 -8q-105 0 -169 66t-64 161q0 93 64.5 160t168.5 67q105 0 169 -66t64 -161q0 -93 -64.5 -160t-168.5 -67z"/>
<glyph glyph-name="otilde" horiz-adv-x="534" unicode="õ" d="M347 506q-48 0 -89 37q-37 33 -60 33q-36 0 -52 -64l-74 19q8 70 42 110.5t77 40.5q48 0 89 -37q37 -33 60 -33q36 0 52 64l74 -19q-8 -70 -42 -110.5t-77 -40.5zM267 83q53 0 87 38t34 98t-34 98t-87 38t-87 -38t-34 -98t34 -98t87 -38zM267 -8q-105 0 -169 66t-64 161 q0 93 64.5 160t168.5 67q105 0 169 -66t64 -161q0 -93 -64.5 -160t-168.5 -67z"/>
<glyph glyph-name="odieresis" horiz-adv-x="534" unicode="ö" d="M163 505q-29 0 -50.5 21t-21.5 51t22 51t52 21q29 0 50.5 -21t21.5 -51t-22 -51t-52 -21zM369 505q-29 0 -50.5 21t-21.5 51t22 51t52 21q29 0 50.5 -21t21.5 -51t-22 -51t-52 -21zM267 83q53 0 87 38t34 98t-34 98t-87 38t-87 -38t-34 -98t34 -98t87 -38zM267 -8 q-105 0 -169 66t-64 161q0 93 64.5 160t168.5 67q105 0 169 -66t64 -161q0 -93 -64.5 -160t-168.5 -67z"/>
<glyph glyph-name="divide" horiz-adv-x="464" unicode="÷" d="M232 67q-26 0 -45.5 19t-19.5 46t20 46t47 19q26 0 45.5 -19t19.5 -46t-20 -46t-47 -19zM232 369q-26 0 -45.5 19t-19.5 46t20 46t47 19q26 0 45.5 -19t19.5 -46t-20 -46t-47 -19zM412 237h-360v92h360v-92z"/>
<glyph glyph-name="oslash" horiz-adv-x="534" unicode="ø" d="M267 83q53 0 87 38t34 98q0 42 -14 72l-162 -198q23 -10 55 -10zM146 219q0 -48 17 -80l163 203q-28 13 -59 13q-53 0 -87 -38t-34 -98zM267 -8q-59 0 -110 24l-49 -59l-67 55l48 57q-55 63 -55 150q0 93 64.5 160t168.5 67q61 0 115 -28l52 62l67 -55l-52 -62 q51 -62 51 -144q0 -93 -64.5 -160t-168.5 -67z"/>
<glyph glyph-name="ugrave" horiz-adv-x="566" unicode="ù" d="M279 491l-149 108q-31 24 -31 55q0 22 14.5 36.5t34.5 14.5q31 0 55 -31l110 -150zM217 -8q-79 0 -114 58q-22 36 -22 88v208h-65v92h174v-273q0 -27 9 -45q15 -29 54 -29q51 0 113 51v204h-68v92h177v-348h65v-90h-170v70q-80 -78 -153 -78z"/>
<glyph glyph-name="uacute" horiz-adv-x="566" unicode="ú" d="M257 491l-34 33l110 150q24 31 55 31q20 0 34.5 -14.5t14.5 -36.5q0 -31 -31 -55zM217 -8q-79 0 -114 58q-22 36 -22 88v208h-65v92h174v-273q0 -27 9 -45q15 -29 54 -29q51 0 113 51v204h-68v92h177v-348h65v-90h-170v70q-80 -78 -153 -78z"/>
<glyph glyph-name="ucircumflex" horiz-adv-x="566" unicode="û" d="M137 494l-46 53l177 176l177 -176l-46 -53l-131 96zM217 -8q-79 0 -114 58q-22 36 -22 88v208h-65v92h174v-273q0 -27 9 -45q15 -29 54 -29q51 0 113 51v204h-68v92h177v-348h65v-90h-170v70q-80 -78 -153 -78z"/>
<glyph glyph-name="udieresis" horiz-adv-x="566" unicode="ü" d="M164 505q-29 0 -50.5 21t-21.5 51t22 51t52 21q29 0 50.5 -21t21.5 -51t-22 -51t-52 -21zM370 505q-29 0 -50.5 21t-21.5 51t22 51t52 21q29 0 50.5 -21t21.5 -51t-22 -51t-52 -21zM217 -8q-79 0 -114 58q-22 36 -22 88v208h-65v92h174v-273q0 -27 9 -45q15 -29 54 -29 q51 0 113 51v204h-68v92h177v-348h65v-90h-170v70q-80 -78 -153 -78z"/>
<glyph glyph-name="yacute" horiz-adv-x="532" unicode="ý" d="M255 491l-34 33l110 150q24 31 55 31q20 0 34.5 -14.5t14.5 -36.5q0 -31 -31 -55zM235 -142q-49 -57 -116 -57q-42 0 -68 20.5t-26 48.5q0 27 15.5 41.5t38.5 14.5q34 0 48 -33q19 5 35 26q8 11 20 34l33 69l-156 324h-54v92h226v-87h-64l101 -231l102 231h-68v87h225 v-92h-53l-205 -435q-16 -33 -34 -53z"/>
<glyph glyph-name="thorn" horiz-adv-x="533" unicode="þ" d="M272 87q46 0 79 35.5t33 97.5q0 61 -32 96t-80 35q-53 0 -102 -44v-186q48 -34 102 -34zM-4 -196v90h65v746h-68v92h177v-342q57 55 126 55q86 0 143 -63t57 -161q0 -95 -60 -161.5t-147 -66.5q-64 0 -119 42v-141h71v-90h-245z"/>
<glyph glyph-name="OE" horiz-adv-x="931" unicode="Œ" d="M429 101h37v456h-45q-125 0 -191.5 -62.5t-66.5 -170.5q0 -107 71 -165t195 -58zM425 0q-174 0 -276.5 88.5t-102.5 234.5q0 154 99 244.5t282 90.5h455v-188h-108v88h-195v-176h199v-96h-199v-186h196v88h108v-188h-458z"/>
<glyph glyph-name="oe" horiz-adv-x="844" unicode="œ" d="M609 358q-39 0 -69.5 -24.5t-38.5 -75.5h213q-2 46 -30 73t-75 27zM267 83q53 0 87 38t34 98t-34 98t-87 38t-87 -38t-34 -98t34 -98t87 -38zM646 84q78 0 159 46l-9 -98q-68 -40 -161 -40q-60 0 -114 27.5t-78 67.5q-26 -43 -74.5 -69t-106.5 -26q-102 0 -165 66 t-63 161q0 93 63.5 160t164.5 67q60 0 107.5 -26t73.5 -68q28 44 75.5 69t96.5 25q98 0 153 -59.5t55 -150.5q0 -29 -5 -54h-316q22 -98 144 -98z"/>
<glyph glyph-name="Scaron" horiz-adv-x="555" unicode="Š" d="M410 941l46 -53l-177 -176l-177 176l46 53l131 -96zM275 -12q-96 0 -165.5 46t-69.5 107q0 35 19 56.5t50 21.5q32 0 52 -20t20 -45q0 -22 -9 -40q40 -28 104 -28q55 0 86.5 23.5t31.5 65.5q0 37 -31 60t-90 43q-109 39 -158.5 80.5t-49.5 124.5q0 80 60 133.5t158 53.5 q92 0 155 -41.5t63 -100.5q0 -34 -19 -54t-48 -20q-33 0 -52.5 20t-19.5 47q0 17 7 31q-33 20 -87 20q-48 0 -75.5 -22t-27.5 -59t30.5 -58.5t90.5 -43.5q52 -18 83.5 -33t63 -38.5t46 -56.5t14.5 -77q0 -92 -64 -144t-168 -52z"/>
<glyph glyph-name="scaron" horiz-adv-x="458" unicode="š" d="M359 716l46 -53l-177 -176l-177 176l46 53l131 -96zM406 341q0 -26 -15 -42.5t-39 -16.5q-26 0 -42.5 14.5t-16.5 39.5q0 13 2 19q-28 11 -62 11q-35 0 -54 -13t-19 -32q0 -18 20 -30t72 -26q88 -24 127 -51t39 -82q0 -66 -53.5 -103.5t-131.5 -37.5q-50 0 -98 15.5 t-70 37.5q-25 25 -25 59q0 24 16.5 41.5t41.5 17.5q24 0 41.5 -15.5t17.5 -42.5q0 -6 -2 -18q35 -14 79 -14q35 0 57.5 12t22.5 35q0 17 -18 28.5t-68 24.5q-95 25 -133.5 53.5t-38.5 82.5q0 56 46.5 97.5t132.5 41.5q41 0 83 -14t64 -36q24 -24 24 -56z"/>
<glyph glyph-name="Ydieresis" horiz-adv-x="645" unicode="Ÿ" d="M218 730q-29 0 -50.5 21t-21.5 51t22 51t52 21q29 0 50.5 -21t21.5 -51t-22 -51t-52 -21zM424 730q-29 0 -50.5 21t-21.5 51t22 51t52 21q29 0 50.5 -21t21.5 -51t-22 -51t-52 -21zM183 0v101h83v150l-187 306h-66v101h249v-101h-58l121 -211l120 211h-62v101h249v-101 h-66l-187 -306v-150h83v-101h-279z"/>
<glyph glyph-name="circumflex" horiz-adv-x="384" unicode="ˆ" d="M61 494l-46 53l177 176l177 -176l-46 -53l-131 96z"/>
<glyph glyph-name="tilde" horiz-adv-x="424" unicode="˜" d="M290 506q-48 0 -89 37q-37 33 -60 33q-36 0 -52 -64l-74 19q8 70 42 110.5t77 40.5q48 0 89 -37q37 -33 60 -33q36 0 52 64l74 -19q-8 -70 -42 -110.5t-77 -40.5z"/>
<glyph glyph-name="enspace" horiz-adv-x="500" unicode=" "/>
<glyph glyph-name="emspace" horiz-adv-x="1000" unicode=" "/>
<glyph glyph-name="thinspace" horiz-adv-x="133" unicode=" "/>
<glyph glyph-name="endash" horiz-adv-x="569" unicode="–" d="M22 232v102h525v-102h-525z"/>
<glyph glyph-name="emdash" horiz-adv-x="855" unicode="—" d="M22 232v102h811v-102h-811z"/>
<glyph glyph-name="quoteleft" horiz-adv-x="244" unicode="‘" d="M115 362q-34 0 -57.5 24.5t-23.5 68.5q0 50 40 109t126 109l30 -39q-45 -36 -69.5 -69.5t-26.5 -56.5q58 -17 58 -74q0 -29 -22.5 -50.5t-54.5 -21.5z"/>
<glyph glyph-name="quotesinglbase" horiz-adv-x="266" unicode="‚" d="M42 -173l-32 41q98 78 102 134q-28 8 -45 29t-17 50q0 30 24.5 53t57.5 23q37 0 61.5 -26t24.5 -73q0 -54 -42.5 -116.5t-133.5 -114.5z"/>
<glyph glyph-name="quotedblleft" horiz-adv-x="475" unicode="“" d="M115 362q-34 0 -57.5 24.5t-23.5 68.5q0 50 40 109t126 109l30 -39q-45 -36 -69.5 -69.5t-26.5 -56.5q58 -17 58 -74q0 -29 -22.5 -50.5t-54.5 -21.5zM346 362q-34 0 -57.5 24.5t-23.5 68.5q0 50 40 109t126 109l30 -39q-45 -36 -69.5 -69.5t-26.5 -56.5q58 -17 58 -74 q0 -29 -22.5 -50.5t-54.5 -21.5z"/>
<glyph glyph-name="quotedblright" horiz-adv-x="475" unicode="”" d="M44 359l-30 39q45 36 69.5 69.5t26.5 56.5q-58 17 -58 74q0 29 22.5 50.5t54.5 21.5q34 0 57.5 -24.5t23.5 -68.5q0 -50 -40 -109t-126 -109zM275 359l-30 39q45 36 69.5 69.5t26.5 56.5q-58 17 -58 74q0 29 22.5 50.5t54.5 21.5q34 0 57.5 -24.5t23.5 -68.5 q0 -50 -40 -109t-126 -109z"/>
<glyph glyph-name="dagger" horiz-adv-x="514" unicode="†" d="M232 -2l-25 372l-68 7q-4 -25 -21 -40t-39 -15q-25 0 -42.5 17.5t-17.5 42.5q0 31 23.5 51t61.5 20q16 0 34 -4l91 -19l-30 144q-2 10 -2 14q0 25 18.5 42.5t41.5 17.5t41.5 -17.5t18.5 -42.5q0 -4 -2 -14l-30 -144l91 19q18 4 34 4q38 0 61.5 -20t23.5 -51 q0 -25 -17.5 -42.5t-42.5 -17.5q-22 0 -39 15t-21 40l-68 -7l-25 -372h-50z"/>
<glyph glyph-name="daggerdbl" horiz-adv-x="544" unicode="‡" d="M272 -128q-23 0 -39.5 16.5t-16.5 43.5q0 10 3 22l30 126l-88 -16q-15 -3 -28 -3q-37 0 -61 17t-24 49q0 24 16 39.5t40 15.5q22 0 38.5 -14.5t18.5 -40.5l61 4l22 129l-22 129l-61 4q-2 -26 -18.5 -40.5t-38.5 -14.5q-24 0 -40 15.5t-16 39.5q0 32 24 49t61 17 q13 0 28 -3l88 -16l-30 126q-3 12 -3 22q0 28 16 44t40 16q23 0 39.5 -16.5t16.5 -43.5q0 -10 -3 -22l-30 -126l88 16q15 3 28 3q37 0 61 -17t24 -49q0 -24 -16 -39.5t-40 -15.5q-22 0 -38.5 14.5t-18.5 40.5l-61 -4l-22 -129l22 -129l61 -4q2 26 18.5 40.5t38.5 14.5 q24 0 40 -15.5t16 -39.5q0 -32 -24 -49t-61 -17q-13 0 -28 3l-88 16l30 -126q3 -12 3 -22q0 -27 -16.5 -43.5t-39.5 -16.5z"/>
<glyph glyph-name="ellipsis" horiz-adv-x="684" unicode="…" d="M112 -8q-32 0 -54.5 22.5t-22.5 54.5t22.5 54.5t54.5 22.5t54.5 -22.5t22.5 -54.5t-22.5 -54.5t-54.5 -22.5zM342 -8q-32 0 -54.5 22.5t-22.5 54.5t22.5 54.5t54.5 22.5t54.5 -22.5t22.5 -54.5t-22.5 -54.5t-54.5 -22.5zM572 -8q-32 0 -54.5 22.5t-22.5 54.5t22.5 54.5 t54.5 22.5t54.5 -22.5t22.5 -54.5t-22.5 -54.5t-54.5 -22.5z"/>
<glyph glyph-name="perthousand" horiz-adv-x="1001" unicode="‰" d="M819 60q24 0 39 17t15 43q0 27 -15 44.5t-39 17.5t-39 -17.5t-15 -44.5q0 -26 15 -43t39 -17zM819 -8q-55 0 -94.5 38t-39.5 92t39.5 92t94.5 38t94.5 -38t39.5 -92t-39.5 -92t-94.5 -38zM519 60q24 0 39 17t15 43q0 27 -15 44.5t-39 17.5t-39 -17.5t-15 -44.5 q0 -26 15 -43t39 -17zM519 -8q-55 0 -94.5 38t-39.5 92t39.5 92t94.5 38t94.5 -38t39.5 -92t-39.5 -92t-94.5 -38zM182 341q24 0 39 17t15 43q0 27 -15 44.5t-39 17.5t-39 -17.5t-15 -44.5q0 -26 15 -43t39 -17zM130 -15l-42 41q121 122 246 252q123 129 237 262l42 -41 q-163 -163 -247 -251q-104 -109 -236 -263zM182 273q-55 0 -94.5 38t-39.5 92t39.5 92t94.5 38t94.5 -38t39.5 -92t-39.5 -92t-94.5 -38z"/>
<glyph glyph-name="guilsinglleft" horiz-adv-x="325" unicode="‹" d="M223 91l-199 191l199 191l65 -65l-122 -126l122 -126z"/>
<glyph glyph-name="guilsinglright" horiz-adv-x="325" unicode="›" d="M102 91l-65 65l122 126l-122 126l65 65l199 -191z"/>
<glyph glyph-name="fraction" horiz-adv-x="500" unicode="⁄" d="M79 -16l-49 32q99 153 200 316q91 146 189 326l49 -32q-85 -131 -200 -316q-98 -159 -189 -326z"/>
<glyph glyph-name="Euro" horiz-adv-x="670" unicode="€" d="M52 291v82h94q31 73 99 116.5t154 43.5q93 0 152 -45t59 -99q0 -34 -22.5 -55t-51.5 -21q-28 0 -47 19t-19 47q0 27 14 41q-24 22 -87 22q-96 0 -146 -74h141v-77h-170q-1 -9 -1 -27t1 -26h170v-77h-142q51 -78 150 -78q80 0 145 67l64 -67q-83 -91 -209 -91 q-93 0 -161 43.5t-97 120.5h-90v82h73q-1 8 -1 24q0 19 1 29h-73z"/>
<glyph glyph-name="trademark" horiz-adv-x="657" unicode="™" d="M80 403v48h33v160h-42v-44h-48v91h239v-91h-48v44h-42v-160h33v-48h-125zM298 403v48h31l8 159h-36v48h105l58 -132l54 132h105v-48h-36l8 -159h31v-48h-118v48h32l-5 125l-60 -129h-26l-61 129l-5 -125h32v-48h-117z"/>
<glyph glyph-name="minus" horiz-adv-x="464" unicode="−" d="M52 237v92h360v-92h-360z"/>
</font>
</defs>
</svg>
